<?xml version="1.0" standalone="no"?>
<!DOCTYPE svg PUBLIC "-//W3C//DTD SVG 1.1//EN" "http://www.w3.org/Graphics/SVG/1.1/DTD/svg11.dtd" >
<svg xmlns="http://www.w3.org/2000/svg" xmlns:xlink="http://www.w3.org/1999/xlink" version="1.1">
<metadata>
Created by FontForge 20200427 at Wed May 21 01:33:29 2014
 By www
Copyright 2014 Intel Corporation - All Rights Reserved.
</metadata>
<defs>
<font id="IntelClear-Regular" horiz-adv-x="0" >
  <font-face 
    font-family="Intel Clear"
    font-weight="400"
    font-stretch="normal"
    units-per-em="1000"
    panose-1="2 11 6 4 2 2 3 2 2 4"
    ascent="771"
    descent="-229"
    x-height="500"
    cap-height="690"
    bbox="-374 -281 1478 1040"
    underline-thickness="72"
    underline-position="-107"
    unicode-range="U+0008-FFFD"
  />
<missing-glyph horiz-adv-x="500" 
d="M450 0h-400v750h400v-750zM400 50v650h-300v-650h300z" />
    <glyph glyph-name=".notdef" horiz-adv-x="500" 
d="M450 0h-400v750h400v-750zM400 50v650h-300v-650h300z" />
    <glyph glyph-name=".null" 
 />
    <glyph glyph-name=".null" 
 />
    <glyph glyph-name=".null" 
 />
    <glyph glyph-name="nonmarkingreturn" unicode="&#x9;" horiz-adv-x="244" 
 />
    <glyph glyph-name="nonmarkingreturn" unicode="&#xd;" horiz-adv-x="244" 
 />
    <glyph glyph-name="space" unicode=" " horiz-adv-x="244" 
 />
    <glyph glyph-name="exclam" unicode="!" horiz-adv-x="262" 
d="M91 197l-8 493h97l-9 -493h-80zM78 0v114h106v-114h-106z" />
    <glyph glyph-name="quotedbl" unicode="&#x22;" horiz-adv-x="351" 
d="M135 441h-76l-9 249h93zM293 441h-76l-9 249h93z" />
    <glyph glyph-name="numbersign" unicode="#" horiz-adv-x="594" 
d="M45 499h123l25 178h76l-25 -178h150l25 178h76l-25 -178h105v-65h-114l-26 -191h113v-65h-122l-24 -178h-76l24 178h-150l-24 -178h-76l24 178h-105v65h114l26 191h-114v65zM209 243h150l26 191h-150z" />
    <glyph glyph-name="dollar" unicode="$" horiz-adv-x="594" 
d="M331 791v-102q54 -3 105 -19.5t91 -45.5l-36 -59q-32 22 -70.5 34.5t-89.5 14.5v-239l50 -13q78 -21 121 -63.5t43 -110.5q0 -39 -14 -73t-41 -59.5t-67 -41.5t-92 -20v-108h-66v107q-66 5 -124 26t-101 59l42 59q38 -33 85 -50t98 -20v249l-47 13q-83 23 -121 68
t-38 106q0 39 15 71.5t42 56.5t65 38.5t84 18.5v103h66zM331 70q60 8 93 36t33 76q0 45 -27.5 69.5t-85.5 41.5l-13 4v-227zM147 507q0 -43 27 -69t78 -40l13 -4v219q-54 -7 -86 -33t-32 -73z" />
    <glyph glyph-name="percent" unicode="%" horiz-adv-x="931" 
d="M340 0h-88l331 677h87zM805 194q0 138 -84 138t-84 -138q0 -137 84 -137t84 137zM553 194q0 98 45.5 151.5t122.5 53.5t122.5 -53.5t45.5 -151.5t-45.5 -151t-122.5 -53t-122.5 53t-45.5 151zM294 482q0 138 -84 138t-84 -138q0 -137 84 -137t84 137zM42 482
q0 98 45.5 151.5t122.5 53.5t122.5 -53.5t45.5 -151.5t-45.5 -151t-122.5 -53t-122.5 53t-45.5 151z" />
    <glyph glyph-name="ampersand" unicode="&#x26;" horiz-adv-x="662" 
d="M544 0l-59 65q-42 -38 -94.5 -58t-118.5 -20q-53 0 -95.5 13.5t-72.5 37.5t-46 57.5t-16 74.5q0 68 42 119.5t115 89.5q-23 25 -40 46t-28 40.5t-16.5 39.5t-5.5 44q0 36 14 65t38 48.5t57 30t71 10.5q34 0 65.5 -9t55.5 -28t38.5 -48t14.5 -68q0 -63 -38 -106t-104 -80
l164 -182q20 33 33 72t22 90l78 -18q-12 -60 -31.5 -110.5t-48.5 -91.5l112 -124h-106zM280 64q46 0 85.5 14.5t69.5 41.5l-186 206q-55 -30 -85 -66.5t-30 -84.5q0 -55 39 -83t107 -28zM194 553q0 -18 5.5 -34t16 -31.5t25 -32t31.5 -37.5q28 16 48 30t33 29t19 32t6 38
q0 45 -25.5 66.5t-64.5 21.5q-43 0 -68.5 -22.5t-25.5 -59.5z" />
    <glyph glyph-name="quotesingle" unicode="'" horiz-adv-x="193" 
d="M135 441h-76l-9 249h93z" />
    <glyph glyph-name="parenleft" unicode="(" horiz-adv-x="286" 
d="M54 283q0 127 32 238.5t94 208.5h86q-29 -53 -51 -106t-36.5 -108t-22 -112.5t-7.5 -120.5q0 -125 29 -233t88 -214h-86q-62 97 -94 208.5t-32 238.5z" />
    <glyph glyph-name="parenright" unicode=")" horiz-adv-x="286" 
d="M232 283q0 -127 -32 -238.5t-94 -208.5h-86q58 106 87.5 214t29.5 233q0 63 -7.5 120.5t-22 112.5t-36.5 108t-51 106h86q62 -97 94 -208.5t32 -238.5z" />
    <glyph glyph-name="asterisk" unicode="*" horiz-adv-x="395" 
d="M197 474l-71 -114l-67 48l88 100l-113 36l28 71l105 -55l-11 130h83l-11 -129l105 54l28 -71l-113 -36l88 -100l-67 -48z" />
    <glyph glyph-name="plus" unicode="+" horiz-adv-x="594" 
d="M340 372h185v-76h-185v-198h-86v198h-185v76h185v198h86v-198z" />
    <glyph glyph-name="comma" unicode="," horiz-adv-x="217" 
d="M56 114h105v-71q0 -60 -10.5 -113.5t-37.5 -100.5l-54 25q40 74 40 146h-43v114z" />
    <glyph glyph-name="hyphen" unicode="-" horiz-adv-x="398" 
d="M46 302h306v-84h-306v84z" />
    <glyph glyph-name="period" unicode="." horiz-adv-x="217" 
d="M56 0v114h105v-114h-105z" />
    <glyph glyph-name="slash" unicode="/" horiz-adv-x="388" 
d="M102 -164h-92l276 894h92z" />
    <glyph glyph-name="zero" unicode="0" horiz-adv-x="594" 
d="M555 339q0 -174 -68.5 -263t-189.5 -89t-189.5 89t-68.5 263q0 172 69 261.5t189 89.5t189 -89.5t69 -261.5zM459 339q0 134 -42 201.5t-120 67.5t-120 -67.5t-42 -201.5q0 -135 42 -202.5t120 -67.5t120 67.5t42 202.5z" />
    <glyph glyph-name="one" unicode="1" horiz-adv-x="594" 
d="M302 0v575l-180 -87l-39 72l241 117h69v-677h-91z" />
    <glyph glyph-name="two" unicode="2" horiz-adv-x="594" 
d="M283 612q-47 0 -88.5 -15t-73.5 -41l-44 61q42 33 92.5 53t116.5 20q100 0 157.5 -47t57.5 -134q0 -35 -9.5 -64.5t-27 -55t-41.5 -48t-52 -44.5l-118 -90q-38 -29 -62.5 -59.5t-31.5 -65.5h335v-82h-427v51q0 66 36 117.5t93 95.5l118 90q54 42 74 78t20 73q0 53 -32 80
t-93 27z" />
    <glyph glyph-name="three" unicode="3" horiz-adv-x="594" 
d="M484 512q0 -56 -25 -97.5t-67 -64.5q121 -35 121 -161q0 -48 -17.5 -85.5t-49.5 -63.5t-77.5 -39.5t-100.5 -13.5q-64 0 -119.5 19t-97.5 56l45 65q41 -32 81.5 -47t90.5 -15q72 0 112.5 31.5t40.5 95.5q0 60 -37.5 86.5t-110.5 26.5h-101v77h98q31 0 54 9.5t38 26
t22.5 38t7.5 46.5q0 58 -37.5 84t-92.5 26q-41 0 -82.5 -13t-73.5 -36l-40 61q41 32 94 49t110 17q100 0 157 -48.5t57 -129.5z" />
    <glyph glyph-name="four" unicode="4" horiz-adv-x="594" 
d="M371 0v151h-326v71l324 455h89v-449h97v-77h-97v-151h-87zM371 228v319l-225 -319h225z" />
    <glyph glyph-name="five" unicode="5" horiz-adv-x="594" 
d="M125 677h358v-77h-283l-19 -210q24 17 57.5 27t73.5 10q100 0 155.5 -55.5t55.5 -155.5q0 -51 -17 -93.5t-48.5 -72.5t-78 -46.5t-104.5 -16.5q-124 0 -213 75l44 65q37 -30 79.5 -46t87.5 -16q73 0 115.5 38.5t42.5 110.5q0 68 -37 102t-105 34q-42 0 -75 -13t-60 -36
l-59 28z" />
    <glyph glyph-name="six" unicode="6" horiz-adv-x="594" 
d="M355 612q-42 0 -78.5 -14t-64 -44.5t-44.5 -80t-19 -121.5q25 45 75 68.5t114 23.5q97 0 154.5 -56.5t57.5 -156.5q0 -53 -16 -98t-46 -77.5t-74 -50.5t-99 -18q-122 0 -189 86.5t-67 248.5q0 90 21 158.5t59.5 115t93 70.5t122.5 24q44 0 89.5 -11.5t80.5 -40.5l-36 -63
q-29 20 -65 28.5t-69 8.5zM458 223q0 76 -39.5 110t-100.5 34q-73 0 -116 -39t-43 -108q0 -34 11 -62.5t31 -49.5t49 -32.5t64 -11.5q66 0 105 41.5t39 117.5z" />
    <glyph glyph-name="seven" unicode="7" horiz-adv-x="594" 
d="M155 0l268 595h-372v82h471v-68l-268 -609h-99z" />
    <glyph glyph-name="eight" unicode="8" horiz-adv-x="594" 
d="M297 -13q-53 0 -97.5 14t-76.5 39.5t-49.5 62.5t-17.5 82q0 64 34 108t88 58q-44 19 -69.5 58.5t-25.5 93.5q0 39 14.5 73t42 59.5t67.5 40t90 14.5t90 -14.5t67.5 -40t42 -59.5t14.5 -73q0 -54 -26 -93.5t-69 -58.5q54 -14 88 -58t34 -108q0 -45 -17.5 -82t-49.5 -62.5
t-76.5 -39.5t-97.5 -14zM297 64q70 0 109.5 32.5t39.5 92.5q0 62 -40 93t-109 31t-109 -31t-40 -93q0 -60 39.5 -92.5t109.5 -32.5zM297 384q55 0 88.5 31t33.5 86q0 54 -32.5 83t-89.5 29t-89.5 -29t-32.5 -83q0 -55 33.5 -86t88.5 -31z" />
    <glyph glyph-name="nine" unicode="9" horiz-adv-x="594" 
d="M249 65q97 0 146 65.5t52 191.5q-23 -45 -69 -70.5t-111 -25.5q-48 0 -87.5 16t-67.5 45.5t-43 71t-15 92.5q0 55 16.5 99.5t47.5 75.5t73.5 47.5t95.5 16.5q61 0 107 -23.5t77 -67t46.5 -107t15.5 -142.5q0 -83 -17.5 -150.5t-53 -114.5t-88.5 -72.5t-123 -25.5
q-54 0 -104.5 15.5t-86.5 44.5l40 64q29 -22 68.5 -34t80.5 -12zM146 455q0 -74 37 -113.5t101 -39.5q67 0 108 40t41 114t-38.5 115.5t-103.5 41.5q-68 0 -106.5 -43t-38.5 -115z" />
    <glyph glyph-name="colon" unicode=":" horiz-adv-x="217" 
d="M56 0v114h105v-114h-105zM56 386v114h105v-114h-105z" />
    <glyph glyph-name="semicolon" unicode=";" horiz-adv-x="217" 
d="M56 114h105v-71q0 -60 -10.5 -113.5t-37.5 -100.5l-54 25q40 74 40 146h-43v114zM56 386v114h105v-114h-105z" />
    <glyph glyph-name="less" unicode="&#x3c;" horiz-adv-x="594" 
d="M176 341l342 -149v-86l-441 200v68l441 199v-84z" />
    <glyph glyph-name="equal" unicode="=" horiz-adv-x="594" 
d="M510 481v-76h-426v76h426zM510 261v-76h-426v76h426z" />
    <glyph glyph-name="greater" unicode="&#x3e;" horiz-adv-x="594" 
d="M76 189l342 148l-342 151v85l441 -200v-69l-441 -198v83z" />
    <glyph glyph-name="question" unicode="?" horiz-adv-x="469" 
d="M164 199q-5 20 -5 45t5 44.5t15.5 37t25.5 34t36 34.5q24 21 41.5 38t29 32t17 30.5t5.5 34.5q0 45 -30.5 70.5t-90.5 25.5q-86 0 -155 -58l-46 59q40 37 92 57t113 20q98 0 154 -44t56 -122q0 -29 -6.5 -51t-21.5 -43.5t-39 -44.5t-59 -52q-15 -13 -25 -25t-16.5 -27
t-9 -34t-2.5 -44v-17h-84zM153 0v114h106v-114h-106z" />
    <glyph glyph-name="at" unicode="@" horiz-adv-x="969" 
d="M470 457q47 0 81 -18t53 -52v30q0 29 33 29h45v-292q0 -40 13.5 -58t43.5 -18q26 0 45 15.5t31.5 42t18.5 62.5t6 77q0 162 -85.5 247t-248.5 85q-85 0 -154 -23.5t-117.5 -70t-75 -116t-26.5 -162.5t26 -162t72 -115t110 -69t141 -23q63 0 114 13.5t86 36.5l34 -64
q-33 -22 -95 -42t-143 -20q-84 0 -161.5 26t-137 80.5t-95.5 138t-36 198.5q0 117 37.5 202t100.5 140t145 81.5t171 26.5q79 0 154.5 -21.5t134 -69t94.5 -123.5t36 -185q0 -62 -12 -112t-36 -85.5t-59.5 -55t-81.5 -19.5q-47 0 -78 21t-39 65q-17 -38 -58.5 -62t-96.5 -24
q-41 0 -75.5 15t-59.5 43.5t-38.5 68.5t-13.5 91t14 93t39.5 71.5t62 46t81.5 16.5zM604 240q0 71 -33.5 106t-88.5 35q-60 0 -92 -39.5t-32 -109.5q0 -69 31 -106.5t88 -37.5q59 0 93 40t34 112z" />
    <glyph glyph-name="A" unicode="A" horiz-adv-x="649" 
d="M468 191h-295l-70 -191h-91l264 690h97l264 -690h-99zM201 268h239l-120 323z" />
    <glyph glyph-name="B" unicode="B" horiz-adv-x="620" 
d="M540 508q0 -53 -23.5 -90.5t-67.5 -59.5q127 -34 127 -162q0 -94 -63 -145t-184 -51h-241v690h218q113 0 173.5 -47.5t60.5 -134.5zM178 79h136q85 0 126.5 27t41.5 92q0 113 -136 113h-168v-232zM178 388h126q72 0 107 25.5t35 85.5q0 57 -35 84.5t-113 27.5h-120v-223z
" />
    <glyph glyph-name="C" unicode="C" horiz-adv-x="632" 
d="M592 53q-36 -31 -89 -49.5t-122 -18.5q-83 0 -144 28.5t-101.5 77.5t-60 115t-19.5 141q0 85 23.5 151.5t67 112.5t104.5 70t136 24q63 0 112.5 -16.5t85.5 -45.5l-43 -70q-32 23 -68 35t-83 12q-112 0 -174.5 -71t-62.5 -203q0 -133 62.5 -204.5t169.5 -71.5
q49 0 89.5 13.5t72.5 39.5z" />
    <glyph glyph-name="D" unicode="D" horiz-adv-x="693" 
d="M88 690h208q169 0 255 -87t86 -255q0 -171 -87 -259.5t-252 -88.5h-210v690zM182 79h107q130 0 190 64t60 203t-60 202t-190 63h-107v-532z" />
    <glyph glyph-name="E" unicode="E" horiz-adv-x="574" 
d="M182 308v-229h350v-79h-444v690h444v-79h-350v-224h294v-79h-294z" />
    <glyph glyph-name="F" unicode="F" horiz-adv-x="544" 
d="M182 611v-234h276v-79h-276v-298h-94v690h420v-79h-326z" />
    <glyph glyph-name="G" unicode="G" horiz-adv-x="682" 
d="M416 70q65 0 109 14v190h-159v76h248v-321q-18 -11 -42.5 -19t-53 -13.5t-59 -8.5t-58.5 -3q-78 0 -141.5 23t-109 68.5t-70 113.5t-24.5 157q0 86 24.5 152.5t69.5 112.5t108.5 69.5t141.5 23.5q62 0 115.5 -15.5t91.5 -45.5l-42 -71q-68 47 -160 47q-122 0 -186.5 -70
t-64.5 -206q0 -274 262 -274z" />
    <glyph glyph-name="H" unicode="H" horiz-adv-x="704" 
d="M522 0v310h-340v-310h-94v690h94v-301h340v301h94v-690h-94z" />
    <glyph glyph-name="I" unicode="I" horiz-adv-x="270" 
d="M182 0h-94v690h94v-690z" />
    <glyph glyph-name="J" unicode="J" horiz-adv-x="510" 
d="M62 116q34 -26 68.5 -36.5t73.5 -10.5q67 0 97.5 39t30.5 118v464h94v-465q0 -115 -58 -177.5t-167 -62.5q-56 0 -104.5 19t-78.5 45z" />
    <glyph glyph-name="K" unicode="K" horiz-adv-x="629" 
d="M182 0h-94v690h94v-298h17q22 0 35.5 6.5t27.5 23.5l224 268h111l-281 -328l307 -362h-122l-228 276q-17 21 -32.5 31.5t-41.5 10.5h-17v-318z" />
    <glyph glyph-name="L" unicode="L" horiz-adv-x="531" 
d="M182 79h329v-79h-423v690h94v-611z" />
    <glyph glyph-name="M" unicode="M" horiz-adv-x="835" 
d="M178 540v-540h-90v690h102l229 -413l229 413h99v-690h-90v543l-201 -363h-78z" />
    <glyph glyph-name="N" unicode="N" horiz-adv-x="705" 
d="M190 690l337 -553v553h90v-690h-102l-337 549v-549h-90v690h102z" />
    <glyph glyph-name="O" unicode="O" horiz-adv-x="762" 
d="M154 345q0 -131 60.5 -203t166.5 -72t166.5 72t60.5 203t-60.5 203t-166.5 72t-166.5 -72t-60.5 -203zM56 345q0 82 23 149t65.5 113.5t102.5 72t134 25.5t134 -25.5t102.5 -72t65.5 -113.5t23 -149q0 -83 -23 -149.5t-65.5 -113t-102.5 -72t-134 -25.5t-134 25.5
t-102.5 72t-65.5 113t-23 149.5z" />
    <glyph glyph-name="P" unicode="P" horiz-adv-x="615" 
d="M182 0h-94v690h238q115 0 177 -57t62 -161q0 -103 -62 -161t-177 -58h-144v-253zM182 332h141q72 0 110 33.5t38 106.5t-37.5 106t-110.5 33h-141v-279z" />
    <glyph glyph-name="Q" unicode="Q" horiz-adv-x="762" 
d="M379 -15q-73 0 -132.5 25.5t-102 72t-65.5 113t-23 149.5q0 82 23 149t65.5 113.5t102.5 72t134 25.5t134 -25.5t102.5 -72t65.5 -113.5t23 -149q0 -118 -46 -202t-128 -124l181 -71l-32 -70l-228 96q-8 3 -15 5.5t-15.5 3.5t-18.5 1.5t-25 0.5zM154 345
q0 -131 60.5 -203t166.5 -72t166.5 72t60.5 203t-60.5 203t-166.5 72t-166.5 -72t-60.5 -203z" />
    <glyph glyph-name="R" unicode="R" horiz-adv-x="613" 
d="M551 493q0 -39 -12 -72t-34.5 -58.5t-53.5 -42t-68 -22.5l216 -298h-113l-173 253q-13 19 -25 25.5t-35 6.5h-75v-285h-90v690h225q112 0 175 -50.5t63 -146.5zM457 490q0 63 -36 92t-113 29h-130v-249h127q71 0 111.5 31t40.5 97z" />
    <glyph glyph-name="S" unicode="S" horiz-adv-x="595" 
d="M311 623q-69 0 -113 -26t-44 -85q0 -35 21 -61.5t78 -42.5l127 -36q36 -10 66 -24.5t51.5 -36t33.5 -50.5t12 -68q0 -46 -17 -84t-49 -65.5t-79.5 -43t-108.5 -15.5q-72 0 -137.5 22t-113.5 64l46 67q45 -35 94 -53t106 -18q76 0 120 30t44 90q0 45 -26 68t-76 37
l-130 35q-78 21 -118 65.5t-40 113.5q0 47 18 84t50.5 62.5t77.5 39t99 13.5q60 0 119 -16.5t104 -50.5l-40 -66q-74 51 -175 51z" />
    <glyph glyph-name="T" unicode="T" horiz-adv-x="606" 
d="M351 611v-611h-94v611h-237v79h566v-79h-235z" />
    <glyph glyph-name="U" unicode="U" horiz-adv-x="706" 
d="M353 -15q-132 0 -200.5 74t-68.5 215v416h94v-420q0 -101 42 -150.5t133 -49.5t133 49.5t42 150.5v420h94v-416q0 -141 -68.5 -215t-200.5 -74z" />
    <glyph glyph-name="V" unicode="V" horiz-adv-x="648" 
d="M112 690l216 -588l211 588h97l-262 -690h-99l-263 690h100z" />
    <glyph glyph-name="W" unicode="W" horiz-adv-x="951" 
d="M471 525l-150 -525h-101l-202 690h100l156 -585l151 537h99l157 -543l156 591h96l-204 -690h-100z" />
    <glyph glyph-name="X" unicode="X" horiz-adv-x="638" 
d="M14 0l249 356l-229 334h107l175 -263l184 263h104l-238 -333l258 -357h-108l-203 287l-195 -287h-104z" />
    <glyph glyph-name="Y" unicode="Y" horiz-adv-x="614" 
d="M353 266v-266h-94v266l-243 424h103l190 -342l189 342h100z" />
    <glyph glyph-name="Z" unicode="Z" horiz-adv-x="597" 
d="M36 75l412 536h-386v79h499v-75l-410 -534h406v-81h-521v75z" />
    <glyph glyph-name="bracketleft" unicode="[" horiz-adv-x="339" 
d="M177 657v-748h148v-73h-237v894h237v-73h-148z" />
    <glyph glyph-name="backslash" unicode="\" horiz-adv-x="388" 
d="M10 730h92l276 -894h-92z" />
    <glyph glyph-name="bracketright" unicode="]" horiz-adv-x="339" 
d="M14 -91h148v748h-148v73h237v-894h-237v73z" />
    <glyph glyph-name="asciicircum" unicode="^" horiz-adv-x="594" 
d="M296 586l-154 -290h-91l209 388h72l211 -388h-94z" />
    <glyph glyph-name="underscore" unicode="_" horiz-adv-x="500" 
d="M0 -138h500v-72h-500v72z" />
    <glyph glyph-name="grave" unicode="`" horiz-adv-x="500" 
d="M353 587h-89l-117 159h110z" />
    <glyph glyph-name="a" unicode="a" horiz-adv-x="519" 
d="M445 -3q-40 0 -58.5 20.5t-20.5 58.5q-21 -41 -63.5 -64t-99.5 -23q-39 0 -69.5 11.5t-51.5 32t-31.5 48.5t-10.5 60q0 42 17 72t45.5 48.5t65.5 27.5t77 9h110v30q0 52 -26 81.5t-93 29.5q-40 0 -76.5 -12t-69.5 -35l-36 60q39 30 87.5 45.5t102.5 15.5q40 0 75.5 -9
t62 -31t42 -57.5t15.5 -89.5v-223q0 -22 7.5 -30t31.5 -8h11v-62q-8 -2 -20 -4t-24 -2zM247 233q-59 0 -90 -21.5t-31 -66.5q0 -38 23 -60t71 -22q33 0 58 11t42.5 30t26 45.5t8.5 56.5v27h-108z" />
    <glyph glyph-name="b" unicode="b" horiz-adv-x="604" 
d="M167 717v-294q22 41 67.5 65.5t104.5 24.5q52 0 92.5 -18t68 -51.5t42 -80t14.5 -103.5q0 -59 -15 -109t-44 -86.5t-72 -57t-99 -20.5q-55 0 -96.5 21.5t-64.5 59.5v-32q0 -36 -41 -36h-46v717h89zM165 245q0 -85 39.5 -133t110.5 -48q72 0 110 50t38 141
q0 88 -35.5 134.5t-104.5 46.5q-75 0 -116.5 -51.5t-41.5 -139.5z" />
    <glyph glyph-name="c" unicode="c" horiz-adv-x="485" 
d="M141 251q0 -90 44.5 -138.5t123.5 -48.5q29 0 59.5 8t55.5 26l35 -62q-61 -49 -158 -49q-64 0 -111.5 20t-79 54.5t-47 82t-15.5 103.5q0 60 17.5 109.5t50.5 84t80.5 53.5t107.5 19q93 0 153 -48l-36 -62q-18 13 -46 23t-66 10q-78 0 -123 -47t-45 -138z" />
    <glyph glyph-name="d" unicode="d" horiz-adv-x="604" 
d="M526 0h-45q-41 0 -41 36v38q-23 -39 -67 -63t-102 -24q-54 0 -95.5 19t-70 54t-43 83t-14.5 107q0 58 15.5 106t44.5 83t72 54.5t97 19.5t95 -21t65 -58v283h89v-717zM440 250q0 91 -38 138.5t-111 47.5q-72 0 -111 -48.5t-39 -137.5q0 -92 38.5 -139t111.5 -47
q70 0 109.5 49.5t39.5 136.5z" />
    <glyph glyph-name="e" unicode="e" horiz-adv-x="539" 
d="M137 229q5 -81 48.5 -123t124.5 -42q78 0 127 40l38 -59q-34 -30 -77.5 -44t-95.5 -14q-58 0 -105 17.5t-80 51.5t-51 84t-18 115q0 61 18 109t50.5 81t76 50.5t94.5 17.5t89.5 -16.5t64.5 -46.5t39 -71.5t13 -90.5q0 -31 -5 -59h-351zM289 439q-62 0 -102 -38t-48 -104
h270v8q0 64 -31 99t-89 35z" />
    <glyph glyph-name="f" unicode="f" horiz-adv-x="334" 
d="M329 500v-72h-135v-428h-89v428h-85v72h85v53q0 81 45.5 124t126.5 43q18 0 32 -1.5t25 -3.5v-69h-15q-30 0 -53.5 -3.5t-39 -13.5t-24 -29.5t-8.5 -50.5v-49h135z" />
    <glyph glyph-name="g" unicode="g" horiz-adv-x="550" 
d="M34 -65q0 45 23 74t65 40q-32 9 -48.5 31.5t-16.5 55.5q0 27 18.5 50.5t50.5 32.5q-27 20 -43.5 52t-16.5 73q0 38 15 69t42 53.5t64.5 34.5t83.5 12q32 0 61 -6t51 -16h143v-62h-81q15 -17 24.5 -39.5t9.5 -48.5q0 -36 -14.5 -67t-41.5 -53t-65 -34.5t-84 -12.5
q-25 0 -46 3t-42 11q-46 -12 -46 -52q0 -23 18.5 -35.5t57.5 -12.5h105q38 0 72.5 -7t61 -23t42.5 -43t16 -66q0 -42 -19.5 -74t-53.5 -53.5t-79.5 -32.5t-97.5 -11t-94 10.5t-72 30.5t-46.5 49t-16.5 67zM222 20q-51 0 -78 -19.5t-27 -58.5q0 -50 42.5 -73t110.5 -23
q73 0 115 25t42 73q0 76 -112 76h-93zM273 240q58 0 89 28.5t31 74.5t-31 75t-89 29t-89.5 -29t-31.5 -75t31.5 -74.5t89.5 -28.5z" />
    <glyph glyph-name="h" unicode="h" horiz-adv-x="589" 
d="M167 717v-289q23 39 66 62t103 23q86 0 131.5 -49t45.5 -144v-320h-89v311q0 64 -26.5 94.5t-83.5 30.5q-66 0 -106.5 -44t-40.5 -125v-267h-89v717h89z" />
    <glyph glyph-name="i" unicode="i" horiz-adv-x="245" 
d="M167 0h-89v500h89v-500zM76 700h93v-100h-93v100z" />
    <glyph glyph-name="j" unicode="j" horiz-adv-x="245" 
d="M3 -143q24 0 38.5 3t23 11t11 20.5t2.5 32.5v576h89v-582q0 -67 -30 -101t-98 -34q-11 0 -23 1t-22 4v69h9zM76 700h93v-100h-93v100z" />
    <glyph glyph-name="k" unicode="k" horiz-adv-x="526" 
d="M289 280l233 -280h-114l-164 206q-14 18 -27 26t-34 8h-16v-240h-89v717h89v-407h15q20 0 32 6t27 22l149 162h106z" />
    <glyph glyph-name="l" unicode="l" horiz-adv-x="277" 
d="M165 717v-581q0 -42 13.5 -54.5t49.5 -12.5h7v-70q-9 -2 -19 -3t-21 -1q-60 0 -89.5 32.5t-29.5 102.5v587h89z" />
    <glyph glyph-name="m" unicode="m" horiz-adv-x="881" 
d="M716 0v312q0 63 -22 93.5t-75 30.5q-61 0 -97 -44t-36 -122v-270h-89v312q0 63 -22 93.5t-75 30.5q-61 0 -97 -44t-36 -122v-270h-89v500h46q41 0 41 -36v-32q23 38 61.5 59.5t88.5 21.5q54 0 92.5 -23.5t58.5 -68.5q23 45 67 68.5t101 23.5q81 0 126 -51t45 -142v-320
h-89z" />
    <glyph glyph-name="n" unicode="n" horiz-adv-x="589" 
d="M165 425q23 41 66.5 64.5t104.5 23.5q86 0 131.5 -49t45.5 -144v-320h-89v311q0 64 -26.5 94.5t-83.5 30.5q-66 0 -106.5 -44t-40.5 -125v-267h-89v500h46q41 0 41 -36v-39z" />
    <glyph glyph-name="o" unicode="o" horiz-adv-x="590" 
d="M542 250q0 -59 -18 -107.5t-50 -83t-78 -53.5t-101 -19q-56 0 -101.5 19t-77.5 53.5t-50 83t-18 107.5t18 107.5t50 83t77.5 53.5t101.5 19q55 0 101 -19t78 -53.5t50 -83t18 -107.5zM449 250q0 89 -40 137.5t-114 48.5t-114 -48.5t-40 -137.5t40 -137.5t114 -48.5
t114 48.5t40 137.5z" />
    <glyph glyph-name="p" unicode="p" horiz-adv-x="604" 
d="M326 -13q-54 0 -95 21.5t-64 59.5v-278h-89v710h46q41 0 41 -36v-41q21 41 68 65.5t109 24.5q51 0 90.5 -18t67 -51.5t42 -80t14.5 -103.5q0 -59 -15 -109t-44 -86.5t-72 -57t-99 -20.5zM165 245q0 -85 39.5 -133t110.5 -48q72 0 110 50t38 141q0 88 -35.5 134.5
t-104.5 46.5q-75 0 -116.5 -51.5t-41.5 -139.5z" />
    <glyph glyph-name="q" unicode="q" horiz-adv-x="604" 
d="M277 513q55 0 96.5 -22t65.5 -60v33q0 36 41 36h46v-710h-89v277q-23 -36 -66.5 -58t-99.5 -22q-54 0 -95.5 19t-70 54t-43 83t-14.5 107q0 58 15.5 106t44.5 83t72 54.5t97 19.5zM440 250q0 91 -38 138.5t-111 47.5q-72 0 -111 -48.5t-39 -137.5q0 -92 38.5 -139
t111.5 -47q70 0 109.5 49.5t39.5 136.5z" />
    <glyph glyph-name="r" unicode="r" horiz-adv-x="372" 
d="M78 500h46q41 0 41 -36v-48q21 44 61 67.5t94 23.5q15 0 26 -1.5t18 -3.5v-74h-33q-83 0 -123.5 -44t-40.5 -143v-241h-89v500z" />
    <glyph glyph-name="s" unicode="s" horiz-adv-x="466" 
d="M238 439q-41 0 -69 -16t-28 -53q0 -17 11.5 -34.5t51.5 -29.5l92 -28q66 -20 96 -52.5t30 -83.5q0 -69 -49.5 -112t-142.5 -43q-60 0 -108.5 17.5t-85.5 49.5l41 62q32 -25 70.5 -39.5t83.5 -14.5q46 0 74.5 19t28.5 59q0 25 -14.5 40t-49.5 26l-95 28q-62 18 -92 51
t-30 84q0 36 14 63t39 45t58.5 27t72.5 9q47 0 93.5 -12.5t79.5 -38.5l-33 -62q-28 17 -62.5 28t-76.5 11z" />
    <glyph glyph-name="t" unicode="t" horiz-adv-x="349" 
d="M321 1q-13 -2 -26 -3.5t-29 -1.5q-84 0 -121.5 40t-37.5 132v260h-85v72h85v126h89v-126h125v-72h-125v-270q0 -51 22.5 -69.5t77.5 -18.5h25v-69z" />
    <glyph glyph-name="u" unicode="u" horiz-adv-x="577" 
d="M499 0h-45q-41 0 -41 36v40q-18 -35 -57 -62t-103 -27q-85 0 -132 52t-47 147v314h89v-307q0 -65 25.5 -97t79.5 -32q66 0 104 46t38 128v262h89v-500z" />
    <glyph glyph-name="v" unicode="v" horiz-adv-x="508" 
d="M104 500l151 -406l153 406h90l-199 -500h-89l-200 500h94z" />
    <glyph glyph-name="w" unicode="w" horiz-adv-x="740" 
d="M532 92l106 408h90l-155 -500h-87l-116 357l-116 -357h-87l-155 500h94l108 -404l117 365h87z" />
    <glyph glyph-name="x" unicode="x" horiz-adv-x="485" 
d="M292 256l185 -256h-103l-134 193l-135 -193h-97l185 255l-173 245h102l123 -183l123 183h97z" />
    <glyph glyph-name="y" unicode="y" horiz-adv-x="508" 
d="M104 500l151 -407l153 407h90l-227 -570q-14 -34 -27 -61.5t-31 -46.5t-43.5 -29t-62.5 -10q-17 0 -28 1.5t-19 3.5v69h26q21 0 36.5 3t27 11t20.5 22.5t18 37.5l24 64l-202 505h94z" />
    <glyph glyph-name="z" unicode="z" horiz-adv-x="487" 
d="M140 74h311v-74h-415v74l310 354h-301v72h403v-74z" />
    <glyph glyph-name="braceleft" unicode="{" horiz-adv-x="369" 
d="M334 657q-60 0 -88 -23.5t-28 -80.5v-158q0 -49 -15 -75.5t-44 -36.5q29 -10 44 -37t15 -75v-158q0 -57 28 -80.5t88 -23.5h21v-70q-9 -2 -20 -3t-22 -1q-91 0 -137.5 46t-46.5 135v169q0 20 -3 32.5t-11.5 19t-23.5 9t-39 2.5h-22v70h22q24 0 39 2t23.5 9t11.5 19.5
t3 32.5v169q0 89 46.5 135t137.5 46q11 0 22 -1t20 -3v-70h-21z" />
    <glyph glyph-name="bar" unicode="|" horiz-adv-x="306" 
d="M198 -210h-90v940h90v-940z" />
    <glyph glyph-name="braceright" unicode="}" horiz-adv-x="369" 
d="M240 381q0 -20 3 -32.5t11.5 -19.5t23.5 -9t39 -2h22v-70h-22q-24 0 -39 -2.5t-23.5 -9t-11.5 -19t-3 -32.5v-169q0 -89 -46.5 -135t-137.5 -46q-11 0 -22 1t-20 3v70h21q60 0 88 23.5t28 80.5v158q0 48 14.5 75t44.5 37q-30 10 -44.5 36.5t-14.5 75.5v158q0 57 -28 80.5
t-88 23.5h-21v70q9 2 20 3t22 1q91 0 137.5 -46t46.5 -135v-169z" />
    <glyph glyph-name="asciitilde" unicode="~" horiz-adv-x="594" 
d="M276 304q-33 22 -51.5 32t-38.5 10q-29 0 -42.5 -18.5t-13.5 -61.5v-16h-86v15q0 78 33.5 118t98.5 40q18 0 34 -3.5t32.5 -10.5t34 -18t40.5 -26q33 -22 51.5 -32t38.5 -10q29 0 42.5 18.5t13.5 61.5v16h86v-15q0 -78 -33.5 -118t-98.5 -40q-18 0 -34 3.5t-32.5 10.5
t-34.5 18t-40 26z" />
    <glyph glyph-name="uni00A0" unicode="&#xa0;" horiz-adv-x="244" 
 />
    <glyph glyph-name="exclamdown" unicode="&#xa1;" horiz-adv-x="262" 
d="M171 303l8 -493h-97l9 493h80zM184 500v-114h-106v114h106z" />
    <glyph glyph-name="cent" unicode="&#xa2;" horiz-adv-x="594" 
d="M307 -114v134q-54 6 -94 28t-67 56.5t-40 79t-13 95.5q0 109 55.5 178.5t158.5 83.5v136h66v-134q41 -2 73.5 -14t60.5 -33l-36 -60q-17 11 -41 20.5t-57 11.5v-375q26 2 52 10t49 24l35 -60q-29 -23 -62.5 -34.5t-73.5 -14.5v-132h-66zM184 282q0 -75 32 -122.5
t91 -61.5v365q-59 -14 -91 -60t-32 -121z" />
    <glyph glyph-name="sterling" unicode="&#xa3;" horiz-adv-x="594" 
d="M438 309h-164q5 -18 8 -36.5t3 -37.5q0 -50 -19.5 -91t-54.5 -67h319v-77h-431v70q50 35 74.5 73t24.5 90q0 20 -3.5 38.5t-9.5 37.5h-109v73h84q-9 26 -15 53.5t-6 59.5q0 94 60 144.5t160 50.5q48 0 92 -12.5t73 -36.5l-34 -64q-28 18 -58 25.5t-62 7.5
q-68 0 -103.5 -31.5t-35.5 -94.5q0 -26 6 -51.5t14 -50.5h187v-73z" />
    <glyph glyph-name="currency" unicode="&#xa4;" horiz-adv-x="594" 
d="M61 338q0 44 14.5 82t40.5 68l-70 77l62 56l72 -83q53 28 117 28q63 0 116 -28l73 83l62 -56l-70 -77q26 -30 40.5 -68t14.5 -82q0 -45 -14.5 -83t-40.5 -67l70 -77l-62 -56l-73 82q-51 -27 -116 -27q-66 0 -117 27l-72 -82l-62 56l70 77q-26 29 -40.5 67t-14.5 83z
M443 338q0 70 -37.5 111t-108.5 41t-108.5 -41t-37.5 -111t37.5 -111t108.5 -41t108.5 41t37.5 111z" />
    <glyph glyph-name="yen" unicode="&#xa5;" horiz-adv-x="594" 
d="M213 336l-197 341h104l180 -334l178 334h100l-198 -341h125v-64h-161v-85h161v-63h-161v-124h-94v124h-163v63h163v85h-163v64h126z" />
    <glyph glyph-name="brokenbar" unicode="&#xa6;" horiz-adv-x="306" 
d="M198 181v-391h-90v391h90zM108 730h90v-381h-90v381z" />
    <glyph glyph-name="section" unicode="&#xa7;" horiz-adv-x="491" 
d="M455 301q0 -53 -27 -90.5t-65 -52.5q40 -19 58.5 -46t18.5 -66q0 -36 -14 -65.5t-39.5 -50t-62.5 -32t-83 -11.5q-64 0 -116.5 19t-86.5 47l37 62q36 -25 76.5 -39t84.5 -14q57 0 85.5 21.5t28.5 60.5q0 27 -17 42.5t-55 27.5l-95 29q-69 21 -104 56t-35 92q0 48 26 84
t74 51q-46 20 -68 48t-22 73q0 37 14.5 65t41 47t62.5 28.5t79 9.5q54 0 100.5 -13t78.5 -36l-32 -61q-30 17 -65 26.5t-75 9.5q-55 0 -85.5 -19t-30.5 -54q0 -28 17.5 -42.5t50.5 -24.5l100 -31q80 -25 112.5 -61.5t32.5 -89.5zM132 299q0 -35 21 -55.5t63 -33.5l66 -21
q37 10 61 38t24 66q0 34 -21 57t-68 36l-37 10q-50 -5 -79.5 -30.5t-29.5 -66.5z" />
    <glyph glyph-name="dieresis" unicode="&#xa8;" horiz-adv-x="500" 
d="M301 698h91v-98h-91v98zM108 698h91v-98h-91v98z" />
    <glyph glyph-name="copyright" unicode="&#xa9;" horiz-adv-x="830" 
d="M331 347q0 -31 8 -52t22 -34.5t32.5 -19.5t39.5 -6q24 0 45.5 6t36.5 17l28 -62q-19 -14 -50.5 -23.5t-66.5 -9.5q-36 0 -68.5 11.5t-57 34.5t-39 57.5t-14.5 80.5q0 44 13.5 78.5t37.5 58.5t57 36.5t72 12.5q35 0 64.5 -9t49.5 -23l-27 -61q-14 9 -33.5 15t-44.5 6
q-46 0 -75.5 -28t-29.5 -86zM705 345q0 67 -21.5 121.5t-59.5 92.5t-91.5 58.5t-117.5 20.5t-117.5 -20.5t-91.5 -58.5t-59.5 -92.5t-21.5 -121.5q0 -68 21.5 -122t59.5 -92t91.5 -58.5t117.5 -20.5t117.5 20.5t91.5 58.5t59.5 92t21.5 122zM48 345q0 81 27.5 147.5
t76.5 113.5t116 73t147 26q79 0 146.5 -26t116.5 -73t76.5 -113.5t27.5 -147.5t-27.5 -147.5t-76.5 -113.5t-116.5 -73t-146.5 -26q-80 0 -147 26t-116 73t-76.5 113.5t-27.5 147.5z" />
    <glyph glyph-name="ordfeminine" unicode="&#xaa;" horiz-adv-x="386" 
d="M323 351q-32 0 -47.5 13t-18.5 35q-14 -24 -43 -39t-67 -15q-52 0 -83 27.5t-31 74.5q0 53 39 78.5t103 25.5h67v17q0 37 -18.5 51.5t-53.5 14.5q-27 0 -52 -7t-47 -20l-28 51q26 18 59 28t72 10q72 0 106.5 -33.5t34.5 -93.5v-141q0 -14 4.5 -20t20.5 -6h8v-48
q-9 -3 -25 -3zM24 221v60h342v-60h-342zM164 403q78 0 78 82v15h-56q-38 0 -58.5 -10.5t-20.5 -39.5q0 -22 15 -34.5t42 -12.5z" />
    <glyph glyph-name="guillemotleft" unicode="&#xab;" horiz-adv-x="506" 
d="M145 260l124 -212h-94l-129 212l129 213h94zM328 260l124 -212h-94l-129 212l129 213h94z" />
    <glyph glyph-name="logicalnot" unicode="&#xac;" horiz-adv-x="594" 
d="M433 211v166h-355v77h438v-243h-83z" />
    <glyph glyph-name="uni00AD" unicode="&#xad;" horiz-adv-x="398" 
d="M46 302h306v-84h-306v84z" />
    <glyph glyph-name="registered" unicode="&#xae;" horiz-adv-x="426" 
d="M380 560q0 -37 -12.5 -67.5t-35 -52t-53 -33.5t-66.5 -12t-66.5 12t-53 33.5t-35 52t-12.5 67.5t12.5 67.5t35 52t53 33.5t66.5 12t66.5 -12t53 -33.5t35 -52t12.5 -67.5zM86 560q0 -59 35 -94t92 -35t92 35t35 94t-35 94t-92 35t-92 -35t-35 -94zM294 481h-44l-40 54
q-5 7 -9.5 9t-12.5 2v-65h-40v167h69q30 0 47.5 -12.5t17.5 -37.5q0 -20 -11.5 -33t-29.5 -15zM206 571q33 0 33 25q0 14 -9 19t-28 5h-14v-49h18z" />
    <glyph glyph-name="macron" unicode="&#xaf;" horiz-adv-x="500" 
d="M86 617v67h327v-67h-327z" />
    <glyph glyph-name="degree" unicode="&#xb0;" horiz-adv-x="392" 
d="M276 547q0 41 -21.5 62.5t-58.5 21.5t-58.5 -21.5t-21.5 -62.5q0 -40 21.5 -61.5t58.5 -21.5t58.5 21.5t21.5 61.5zM50 547q0 66 40.5 104.5t105.5 38.5t105.5 -38.5t40.5 -104.5t-40.5 -104t-105.5 -38t-105.5 38t-40.5 104z" />
    <glyph glyph-name="plusminus" unicode="&#xb1;" horiz-adv-x="594" 
d="M525 105v-76h-456v76h456zM341 442h185v-76h-185v-198h-86v198h-185v76h185v198h86v-198z" />
    <glyph glyph-name="uni00B2" unicode="&#xb2;" horiz-adv-x="416" 
d="M193 490q-34 -26 -44 -54h184v-64h-265v26q0 36 17 68.5t55 60.5l76 55q20 14 31 30t11 39q0 55 -71 55q-50 0 -93 -29l-32 52q28 20 64 31t74 11q66 0 102 -30t36 -81q0 -32 -15.5 -59t-50.5 -53z" />
    <glyph glyph-name="uni00B3" unicode="&#xb3;" horiz-adv-x="416" 
d="M329 664q0 -34 -16 -58t-39 -33q32 -8 51.5 -32t19.5 -59q0 -55 -42.5 -87.5t-112.5 -32.5q-39 0 -73.5 10.5t-57.5 27.5l28 55q48 -28 99 -28q38 0 58.5 15t20.5 45q0 28 -18.5 39t-58.5 11h-57v62h54q32 0 48 15t16 38q0 27 -18 40.5t-50 13.5q-23 0 -47 -6t-41 -17
l-29 53q26 17 59 26t69 9q65 0 101 -28.5t36 -78.5z" />
    <glyph glyph-name="acute" unicode="&#xb4;" horiz-adv-x="500" 
d="M243 746h110l-117 -159h-89z" />
    <glyph glyph-name="mu" unicode="&#xb5;" horiz-adv-x="594" 
d="M280 -13q-37 0 -65 13t-43 36v-246h-89v710h89v-307q0 -129 110 -129q60 0 98.5 41t38.5 123v272h89v-397q0 -22 7.5 -30t31.5 -8h11v-62q-8 -2 -20 -4t-24 -2q-40 0 -59.5 22.5t-22.5 60.5q-15 -42 -55 -67.5t-97 -25.5z" />
    <glyph glyph-name="paragraph" unicode="&#xb6;" horiz-adv-x="626" 
d="M251 -140v429q-106 5 -158.5 58t-52.5 145q0 95 59 146.5t171 51.5h268v-830h-93v762h-100v-762h-94z" />
    <glyph glyph-name="periodcentered" unicode="&#xb7;" horiz-adv-x="217" 
d="M56 206v114h105v-114h-105z" />
    <glyph glyph-name="cedilla" unicode="&#xb8;" horiz-adv-x="500" 
d="M273 0l-16 -55q45 -2 70.5 -22t25.5 -56q0 -41 -34.5 -66.5t-90.5 -25.5q-20 0 -42.5 3.5t-39.5 10.5l16 53q15 -5 31 -7.5t32 -2.5q23 0 38.5 7t15.5 26q0 20 -18.5 27.5t-51.5 7.5h-29l27 100h66z" />
    <glyph glyph-name="uni00B9" unicode="&#xb9;" horiz-adv-x="416" 
d="M195 372v308l-94 -45l-31 59l135 67h68v-389h-78z" />
    <glyph glyph-name="ordmasculine" unicode="&#xba;" horiz-adv-x="423" 
d="M50 221v60h323v-60h-323zM379 521q0 -41 -12.5 -73.5t-34.5 -55.5t-53 -35t-68 -12t-68 12t-53 35t-34 55.5t-12 73.5t12 73.5t34 55t53 34.5t68 12t68 -12t53 -34.5t34.5 -55t12.5 -73.5zM302 521q0 57 -24 84t-67 27t-66.5 -27.5t-23.5 -83.5t23.5 -84t66.5 -28t67 28
t24 84z" />
    <glyph glyph-name="guillemotright" unicode="&#xbb;" horiz-adv-x="506" 
d="M178 261l-124 212h94l129 -212l-129 -213h-94zM361 261l-124 212h94l129 -212l-129 -213h-94z" />
    <glyph glyph-name="onequarter" unicode="&#xbc;" horiz-adv-x="931" 
d="M344 0h-88l331 677h87zM754 0v78h-194v52l190 259h72v-254h63v-57h-63v-78h-68zM754 135v153l-113 -153h113zM195 288v308l-94 -45l-31 59l135 67h68v-389h-78z" />
    <glyph glyph-name="onehalf" unicode="&#xbd;" horiz-adv-x="931" 
d="M337 0h-88l331 677h87zM708 118q-34 -26 -44 -54h184v-64h-265v26q0 36 17 68.5t55 60.5l76 55q20 14 31 30t11 39q0 55 -71 55q-50 0 -93 -29l-32 52q28 20 64 31t74 11q66 0 102 -30t36 -81q0 -32 -15.5 -59t-50.5 -53zM195 288v308l-94 -45l-31 59l135 67h68v-389h-78
z" />
    <glyph glyph-name="threequarters" unicode="&#xbe;" horiz-adv-x="931" 
d="M356 0h-88l331 677h87zM754 0v78h-194v52l190 259h72v-254h63v-57h-63v-78h-68zM754 135v153l-113 -153h113zM329 580q0 -34 -16 -58t-39 -33q32 -8 51.5 -32t19.5 -59q0 -55 -42.5 -87.5t-112.5 -32.5q-39 0 -73.5 10.5t-57.5 27.5l28 55q48 -28 99 -28q38 0 58.5 15
t20.5 45q0 28 -18.5 39t-58.5 11h-57v62h54q32 0 48 15t16 38q0 27 -18 40.5t-50 13.5q-23 0 -47 -6t-41 -17l-29 53q26 17 59 26t69 9q65 0 101 -28.5t36 -78.5z" />
    <glyph glyph-name="questiondown" unicode="&#xbf;" horiz-adv-x="469" 
d="M305 301q5 -20 5 -45t-5 -45t-15.5 -37t-25.5 -33.5t-36 -34.5q-24 -21 -41.5 -38t-29 -32t-17 -30.5t-5.5 -34.5q0 -45 30.5 -70.5t90.5 -25.5q86 0 155 58l46 -59q-40 -37 -92 -57t-113 -20q-98 0 -154 44t-56 122q0 28 6.5 50.5t21.5 44t39 44.5t59 52q15 13 25 25
t16.5 27t9 33.5t2.5 44.5v17h84zM316 500v-114h-106v114h106z" />
    <glyph glyph-name="Agrave" unicode="&#xc0;" horiz-adv-x="649" 
d="M468 191h-295l-70 -191h-91l264 690h97l264 -690h-99zM201 268h239l-120 323zM371 760h-98l-130 128h117z" />
    <glyph glyph-name="Aacute" unicode="&#xc1;" horiz-adv-x="649" 
d="M468 191h-295l-70 -191h-91l264 690h97l264 -690h-99zM201 268h239l-120 323zM387 888h117l-130 -128h-98z" />
    <glyph glyph-name="Acircumflex" unicode="&#xc2;" horiz-adv-x="649" 
d="M468 191h-295l-70 -191h-91l264 690h97l264 -690h-99zM201 268h239l-120 323zM324 833l-82 -73h-92l130 139h87l131 -139h-94z" />
    <glyph glyph-name="Atilde" unicode="&#xc3;" horiz-adv-x="649" 
d="M468 191h-295l-70 -191h-91l264 690h97l264 -690h-99zM201 268h239l-120 323zM314 784q-17 11 -28 17t-23 6q-14 0 -23 -8.5t-9 -29.5v-9h-78v10q0 52 24.5 81t75.5 29q24 0 42 -7t41 -22q15 -10 26 -16.5t25 -6.5t22.5 8.5t8.5 29.5v9h78v-10q0 -52 -25.5 -81t-76.5 -29
q-24 0 -40.5 7t-39.5 22z" />
    <glyph glyph-name="Adieresis" unicode="&#xc4;" horiz-adv-x="649" 
d="M468 191h-295l-70 -191h-91l264 690h97l264 -690h-99zM201 268h239l-120 323zM373 878h93v-100h-93v100zM182 878h93v-100h-93v100z" />
    <glyph glyph-name="Aring" unicode="&#xc5;" horiz-adv-x="649" 
d="M201 748q0 52 33.5 81t86.5 29t86.5 -29t33.5 -81q0 -34 -14.5 -57.5t-39.5 -37.5l250 -653h-99l-70 191h-295l-70 -191h-91l248 650q-27 13 -43 38t-16 60zM201 268h239l-120 323zM378 748q0 28 -16 43t-41 15t-41 -15t-16 -43q0 -26 15.5 -42t41.5 -16q25 0 41 15
t16 43z" />
    <glyph glyph-name="AE" unicode="&#xc6;" horiz-adv-x="995" 
d="M12 0l421 690h520v-79h-350v-224h294v-79h-294v-229h350v-79h-444v213h-265l-128 -213h-104zM291 290h218v324h-23z" />
    <glyph glyph-name="Ccedilla" unicode="&#xc7;" horiz-adv-x="632" 
d="M592 53q-32 -27 -76.5 -44.5t-101.5 -22.5l-12 -41q44 -2 69 -22.5t25 -55.5q0 -41 -34.5 -66.5t-90.5 -25.5q-20 0 -42.5 3.5t-39.5 10.5l16 55q15 -5 31 -7.5t32 -2.5q23 0 37.5 7t14.5 24q0 19 -17.5 26t-50.5 7h-29l23 88q-74 6 -128.5 36.5t-90.5 78.5t-53.5 111
t-17.5 135q0 85 23.5 151.5t67 112.5t104.5 70t136 24q63 0 112.5 -16.5t85.5 -45.5l-43 -70q-32 23 -68 35t-83 12q-112 0 -174.5 -71t-62.5 -203q0 -133 62.5 -204.5t169.5 -71.5q49 0 89.5 13.5t72.5 39.5z" />
    <glyph glyph-name="Egrave" unicode="&#xc8;" horiz-adv-x="574" 
d="M182 308v-229h350v-79h-444v690h444v-79h-350v-224h294v-79h-294zM385 760h-98l-130 128h117z" />
    <glyph glyph-name="Eacute" unicode="&#xc9;" horiz-adv-x="574" 
d="M182 308v-229h350v-79h-444v690h444v-79h-350v-224h294v-79h-294zM371 888h117l-130 -128h-98z" />
    <glyph glyph-name="Ecircumflex" unicode="&#xca;" horiz-adv-x="574" 
d="M182 308v-229h350v-79h-444v690h444v-79h-350v-224h294v-79h-294zM318 833l-82 -73h-92l130 139h87l131 -139h-94z" />
    <glyph glyph-name="Edieresis" unicode="&#xcb;" horiz-adv-x="574" 
d="M182 308v-229h350v-79h-444v690h444v-79h-350v-224h294v-79h-294zM367 878h93v-100h-93v100zM176 878h93v-100h-93v100z" />
    <glyph glyph-name="Igrave" unicode="&#xcc;" horiz-adv-x="270" 
d="M182 0h-94v690h94v-690zM190 760h-98l-130 128h117z" />
    <glyph glyph-name="Iacute" unicode="&#xcd;" horiz-adv-x="270" 
d="M182 0h-94v690h94v-690zM191 888h117l-130 -128h-98z" />
    <glyph glyph-name="Icircumflex" unicode="&#xce;" horiz-adv-x="270" 
d="M182 0h-94v690h94v-690zM135 833l-82 -73h-92l130 139h87l131 -139h-94z" />
    <glyph glyph-name="Idieresis" unicode="&#xcf;" horiz-adv-x="270" 
d="M182 0h-94v690h94v-690zM184 878h93v-100h-93v100zM-7 878h93v-100h-93v100z" />
    <glyph glyph-name="Eth" unicode="&#xd0;" horiz-adv-x="703" 
d="M98 322h-82v72h82v296h208q169 0 255 -87t86 -255q0 -171 -87 -259.5t-252 -88.5h-210v322zM192 394h159v-72h-159v-243h107q130 0 190 64t60 203t-60 202t-190 63h-107v-217z" />
    <glyph glyph-name="Ntilde" unicode="&#xd1;" horiz-adv-x="705" 
d="M190 690l337 -553v553h90v-690h-102l-337 549v-549h-90v690h102zM347 784q-17 11 -28 17t-23 6q-14 0 -23 -8.5t-9 -29.5v-9h-78v10q0 52 24.5 81t75.5 29q24 0 42 -7t41 -22q15 -10 26 -16.5t25 -6.5t22.5 8.5t8.5 29.5v9h78v-10q0 -52 -25.5 -81t-76.5 -29
q-24 0 -40.5 7t-39.5 22z" />
    <glyph glyph-name="Ograve" unicode="&#xd2;" horiz-adv-x="762" 
d="M154 345q0 -131 60.5 -203t166.5 -72t166.5 72t60.5 203t-60.5 203t-166.5 72t-166.5 -72t-60.5 -203zM56 345q0 82 23 149t65.5 113.5t102.5 72t134 25.5t134 -25.5t102.5 -72t65.5 -113.5t23 -149q0 -83 -23 -149.5t-65.5 -113t-102.5 -72t-134 -25.5t-134 25.5
t-102.5 72t-65.5 113t-23 149.5zM428 760h-98l-130 128h117z" />
    <glyph glyph-name="Oacute" unicode="&#xd3;" horiz-adv-x="762" 
d="M154 345q0 -131 60.5 -203t166.5 -72t166.5 72t60.5 203t-60.5 203t-166.5 72t-166.5 -72t-60.5 -203zM56 345q0 82 23 149t65.5 113.5t102.5 72t134 25.5t134 -25.5t102.5 -72t65.5 -113.5t23 -149q0 -83 -23 -149.5t-65.5 -113t-102.5 -72t-134 -25.5t-134 25.5
t-102.5 72t-65.5 113t-23 149.5zM444 888h117l-130 -128h-98z" />
    <glyph glyph-name="Ocircumflex" unicode="&#xd4;" horiz-adv-x="762" 
d="M154 345q0 -131 60.5 -203t166.5 -72t166.5 72t60.5 203t-60.5 203t-166.5 72t-166.5 -72t-60.5 -203zM56 345q0 82 23 149t65.5 113.5t102.5 72t134 25.5t134 -25.5t102.5 -72t65.5 -113.5t23 -149q0 -83 -23 -149.5t-65.5 -113t-102.5 -72t-134 -25.5t-134 25.5
t-102.5 72t-65.5 113t-23 149.5zM381 833l-82 -73h-92l130 139h87l131 -139h-94z" />
    <glyph glyph-name="Otilde" unicode="&#xd5;" horiz-adv-x="762" 
d="M154 345q0 -131 60.5 -203t166.5 -72t166.5 72t60.5 203t-60.5 203t-166.5 72t-166.5 -72t-60.5 -203zM56 345q0 82 23 149t65.5 113.5t102.5 72t134 25.5t134 -25.5t102.5 -72t65.5 -113.5t23 -149q0 -83 -23 -149.5t-65.5 -113t-102.5 -72t-134 -25.5t-134 25.5
t-102.5 72t-65.5 113t-23 149.5zM371 784q-17 11 -28 17t-23 6q-14 0 -23 -8.5t-9 -29.5v-9h-78v10q0 52 24.5 81t75.5 29q24 0 42 -7t41 -22q15 -10 26 -16.5t25 -6.5t22.5 8.5t8.5 29.5v9h78v-10q0 -52 -25.5 -81t-76.5 -29q-24 0 -40.5 7t-39.5 22z" />
    <glyph glyph-name="Odieresis" unicode="&#xd6;" horiz-adv-x="762" 
d="M154 345q0 -131 60.5 -203t166.5 -72t166.5 72t60.5 203t-60.5 203t-166.5 72t-166.5 -72t-60.5 -203zM56 345q0 82 23 149t65.5 113.5t102.5 72t134 25.5t134 -25.5t102.5 -72t65.5 -113.5t23 -149q0 -83 -23 -149.5t-65.5 -113t-102.5 -72t-134 -25.5t-134 25.5
t-102.5 72t-65.5 113t-23 149.5zM430 878h93v-100h-93v100zM239 878h93v-100h-93v100z" />
    <glyph glyph-name="multiply" unicode="&#xd7;" horiz-adv-x="594" 
d="M296 387l152 159l51 -51l-153 -160l153 -160l-54 -52l-150 158l-150 -157l-52 51l152 159l-152 160l53 52z" />
    <glyph glyph-name="Oslash" unicode="&#xd8;" horiz-adv-x="762" 
d="M56 345q0 82 23 149t65.5 113.5t102.5 72t134 25.5q57 0 105 -15t86 -43l63 80l57 -47l-66 -83q38 -47 59 -110.5t21 -141.5q0 -83 -23 -149.5t-65.5 -113t-102.5 -72t-134 -25.5q-112 0 -192 57l-62 -79l-57 47l65 83q-38 47 -58.5 110.5t-20.5 141.5zM154 345
q0 -108 41 -176l322 408q-55 43 -136 43q-106 0 -166.5 -72t-60.5 -203zM608 345q0 54 -11 97.5t-31 77.5l-321 -408q54 -42 136 -42q106 0 166.5 72t60.5 203z" />
    <glyph glyph-name="Ugrave" unicode="&#xd9;" horiz-adv-x="706" 
d="M353 -15q-132 0 -200.5 74t-68.5 215v416h94v-420q0 -101 42 -150.5t133 -49.5t133 49.5t42 150.5v420h94v-416q0 -141 -68.5 -215t-200.5 -74zM400 760h-98l-130 128h117z" />
    <glyph glyph-name="Uacute" unicode="&#xda;" horiz-adv-x="706" 
d="M353 -15q-132 0 -200.5 74t-68.5 215v416h94v-420q0 -101 42 -150.5t133 -49.5t133 49.5t42 150.5v420h94v-416q0 -141 -68.5 -215t-200.5 -74zM416 888h117l-130 -128h-98z" />
    <glyph glyph-name="Ucircumflex" unicode="&#xdb;" horiz-adv-x="706" 
d="M353 -15q-132 0 -200.5 74t-68.5 215v416h94v-420q0 -101 42 -150.5t133 -49.5t133 49.5t42 150.5v420h94v-416q0 -141 -68.5 -215t-200.5 -74zM353 833l-82 -73h-92l130 139h87l131 -139h-94z" />
    <glyph glyph-name="Udieresis" unicode="&#xdc;" horiz-adv-x="706" 
d="M353 -15q-132 0 -200.5 74t-68.5 215v416h94v-420q0 -101 42 -150.5t133 -49.5t133 49.5t42 150.5v420h94v-416q0 -141 -68.5 -215t-200.5 -74zM402 878h93v-100h-93v100zM211 878h93v-100h-93v100z" />
    <glyph glyph-name="Yacute" unicode="&#xdd;" horiz-adv-x="614" 
d="M353 266v-266h-94v266l-243 424h103l190 -342l189 342h100zM372 888h117l-130 -128h-98z" />
    <glyph glyph-name="Thorn" unicode="&#xde;" horiz-adv-x="611" 
d="M182 573h140q115 0 177 -56t62 -160q0 -103 -62 -160t-177 -57h-140v-140h-94v690h94v-117zM182 219h137q72 0 110 33t38 105t-37.5 104.5t-110.5 32.5h-137v-275z" />
    <glyph glyph-name="germandbls" unicode="&#xdf;" horiz-adv-x="601" 
d="M502 537q0 -53 -20.5 -92t-57.5 -61q63 -14 100 -64.5t37 -122.5q0 -44 -14 -82t-41.5 -66.5t-68 -45t-92.5 -16.5q-31 0 -63 6t-59 19l22 71q26 -10 47.5 -14.5t46.5 -4.5q65 0 97 36t32 101q0 63 -35 99.5t-104 36.5h-67v73h47q51 0 75.5 29t24.5 85q0 58 -29 88.5
t-86 30.5q-60 0 -94.5 -35.5t-34.5 -104.5v-503h-89v498q0 54 16 95.5t45 69.5t69 42.5t89 14.5q46 0 84 -12.5t65.5 -36.5t42.5 -58t15 -76z" />
    <glyph glyph-name="agrave" unicode="&#xe0;" horiz-adv-x="519" 
d="M445 -3q-40 0 -58.5 20.5t-20.5 58.5q-21 -41 -63.5 -64t-99.5 -23q-39 0 -69.5 11.5t-51.5 32t-31.5 48.5t-10.5 60q0 42 17 72t45.5 48.5t65.5 27.5t77 9h110v30q0 52 -26 81.5t-93 29.5q-40 0 -76.5 -12t-69.5 -35l-36 60q39 30 87.5 45.5t102.5 15.5q40 0 75.5 -9
t62 -31t42 -57.5t15.5 -89.5v-223q0 -22 7.5 -30t31.5 -8h11v-62q-8 -2 -20 -4t-24 -2zM247 233q-59 0 -90 -21.5t-31 -66.5q0 -38 23 -60t71 -22q33 0 58 11t42.5 30t26 45.5t8.5 56.5v27h-108zM318 587h-89l-117 159h110z" />
    <glyph glyph-name="aacute" unicode="&#xe1;" horiz-adv-x="519" 
d="M445 -3q-40 0 -58.5 20.5t-20.5 58.5q-21 -41 -63.5 -64t-99.5 -23q-39 0 -69.5 11.5t-51.5 32t-31.5 48.5t-10.5 60q0 42 17 72t45.5 48.5t65.5 27.5t77 9h110v30q0 52 -26 81.5t-93 29.5q-40 0 -76.5 -12t-69.5 -35l-36 60q39 30 87.5 45.5t102.5 15.5q40 0 75.5 -9
t62 -31t42 -57.5t15.5 -89.5v-223q0 -22 7.5 -30t31.5 -8h11v-62q-8 -2 -20 -4t-24 -2zM247 233q-59 0 -90 -21.5t-31 -66.5q0 -38 23 -60t71 -22q33 0 58 11t42.5 30t26 45.5t8.5 56.5v27h-108zM294 746h110l-117 -159h-89z" />
    <glyph glyph-name="acircumflex" unicode="&#xe2;" horiz-adv-x="519" 
d="M445 -3q-40 0 -58.5 20.5t-20.5 58.5q-21 -41 -63.5 -64t-99.5 -23q-39 0 -69.5 11.5t-51.5 32t-31.5 48.5t-10.5 60q0 42 17 72t45.5 48.5t65.5 27.5t77 9h110v30q0 52 -26 81.5t-93 29.5q-40 0 -76.5 -12t-69.5 -35l-36 60q39 30 87.5 45.5t102.5 15.5q40 0 75.5 -9
t62 -31t42 -57.5t15.5 -89.5v-223q0 -22 7.5 -30t31.5 -8h11v-62q-8 -2 -20 -4t-24 -2zM247 233q-59 0 -90 -21.5t-31 -66.5q0 -38 23 -60t71 -22q33 0 58 11t42.5 30t26 45.5t8.5 56.5v27h-108zM243 678l-81 -91h-90l127 160h87l127 -160h-92z" />
    <glyph glyph-name="atilde" unicode="&#xe3;" horiz-adv-x="519" 
d="M445 -3q-40 0 -58.5 20.5t-20.5 58.5q-21 -41 -63.5 -64t-99.5 -23q-39 0 -69.5 11.5t-51.5 32t-31.5 48.5t-10.5 60q0 42 17 72t45.5 48.5t65.5 27.5t77 9h110v30q0 52 -26 81.5t-93 29.5q-40 0 -76.5 -12t-69.5 -35l-36 60q39 30 87.5 45.5t102.5 15.5q40 0 75.5 -9
t62 -31t42 -57.5t15.5 -89.5v-223q0 -22 7.5 -30t31.5 -8h11v-62q-8 -2 -20 -4t-24 -2zM247 233q-59 0 -90 -21.5t-31 -66.5q0 -38 23 -60t71 -22q33 0 58 11t42.5 30t26 45.5t8.5 56.5v27h-108zM232 623q-17 12 -27.5 17.5t-21.5 5.5q-35 0 -35 -40v-9h-76v10q0 52 25 81
t75 29q25 0 42.5 -7t40.5 -24q17 -12 27.5 -17.5t21.5 -5.5q35 0 35 40v9h76v-10q0 -52 -25 -81t-75 -29q-25 0 -42.5 7t-40.5 24z" />
    <glyph glyph-name="adieresis" unicode="&#xe4;" horiz-adv-x="519" 
d="M445 -3q-40 0 -58.5 20.5t-20.5 58.5q-21 -41 -63.5 -64t-99.5 -23q-39 0 -69.5 11.5t-51.5 32t-31.5 48.5t-10.5 60q0 42 17 72t45.5 48.5t65.5 27.5t77 9h110v30q0 52 -26 81.5t-93 29.5q-40 0 -76.5 -12t-69.5 -35l-36 60q39 30 87.5 45.5t102.5 15.5q40 0 75.5 -9
t62 -31t42 -57.5t15.5 -89.5v-223q0 -22 7.5 -30t31.5 -8h11v-62q-8 -2 -20 -4t-24 -2zM247 233q-59 0 -90 -21.5t-31 -66.5q0 -38 23 -60t71 -22q33 0 58 11t42.5 30t26 45.5t8.5 56.5v27h-108zM294 698h91v-98h-91v98zM101 698h91v-98h-91v98z" />
    <glyph glyph-name="aring" unicode="&#xe5;" horiz-adv-x="519" 
d="M445 -3q-40 0 -58.5 20.5t-20.5 58.5q-21 -41 -63.5 -64t-99.5 -23q-39 0 -69.5 11.5t-51.5 32t-31.5 48.5t-10.5 60q0 42 17 72t45.5 48.5t65.5 27.5t77 9h110v30q0 52 -26 81.5t-93 29.5q-40 0 -76.5 -12t-69.5 -35l-36 60q39 30 87.5 45.5t102.5 15.5q40 0 75.5 -9
t62 -31t42 -57.5t15.5 -89.5v-223q0 -22 7.5 -30t31.5 -8h11v-62q-8 -2 -20 -4t-24 -2zM247 233q-59 0 -90 -21.5t-31 -66.5q0 -38 23 -60t71 -22q33 0 58 11t42.5 30t26 45.5t8.5 56.5v27h-108zM307 678q0 28 -16 43t-41 15t-41 -15t-16 -43t16 -43t41 -15t41 15t16 43z
M130 678q0 52 33.5 81t86.5 29t86.5 -29t33.5 -81t-33.5 -81t-86.5 -29t-86.5 29t-33.5 81z" />
    <glyph glyph-name="ae" unicode="&#xe6;" horiz-adv-x="856" 
d="M251 513q66 0 110 -22t66 -60q26 37 72 59.5t104 22.5q51 0 89.5 -16.5t65 -46.5t39.5 -71.5t13 -90.5q0 -31 -5 -59h-352q5 -81 49 -123t124 -42q77 0 128 40l38 -59q-67 -58 -174 -58q-73 0 -126 26.5t-81 80.5q-27 -51 -78 -78t-123 -27q-41 0 -72.5 11.5t-53.5 32
t-33 48.5t-11 60q0 42 17.5 72t47 48.5t67.5 27.5t80 9h118v30q0 52 -28 81.5t-99 29.5q-42 0 -80 -12t-73 -35l-36 60q82 61 197 61zM254 233q-62 0 -95 -21.5t-33 -66.5q0 -38 25 -60t76 -22q34 0 61 11t45 30t27.5 45.5t9.5 56.5v27h-116zM605 439q-61 0 -101.5 -38
t-48.5 -104h271v8q0 64 -31.5 99t-89.5 35z" />
    <glyph glyph-name="ccedilla" unicode="&#xe7;" horiz-adv-x="485" 
d="M141 251q0 -90 44.5 -138.5t123.5 -48.5q29 0 59.5 8t55.5 26l35 -62q-52 -42 -131 -48l-12 -43q45 -2 70.5 -22t25.5 -56q0 -41 -34.5 -66.5t-90.5 -25.5q-20 0 -42.5 3.5t-39.5 10.5l16 53q15 -5 31 -7.5t32 -2.5q23 0 38.5 7t15.5 26q0 20 -18.5 27.5t-51.5 7.5h-29
l24 89q-54 6 -94.5 27.5t-67.5 55.5t-40 79t-13 96q0 60 17.5 109.5t50.5 84t80.5 53.5t107.5 19q93 0 153 -48l-36 -62q-18 13 -46 23t-66 10q-78 0 -123 -47t-45 -138z" />
    <glyph glyph-name="egrave" unicode="&#xe8;" horiz-adv-x="539" 
d="M137 229q5 -81 48.5 -123t124.5 -42q78 0 127 40l38 -59q-34 -30 -77.5 -44t-95.5 -14q-58 0 -105 17.5t-80 51.5t-51 84t-18 115q0 61 18 109t50.5 81t76 50.5t94.5 17.5t89.5 -16.5t64.5 -46.5t39 -71.5t13 -90.5q0 -31 -5 -59h-351zM289 439q-62 0 -102 -38t-48 -104
h270v8q0 64 -31 99t-89 35zM330 587h-89l-117 159h110z" />
    <glyph glyph-name="eacute" unicode="&#xe9;" horiz-adv-x="539" 
d="M137 229q5 -81 48.5 -123t124.5 -42q78 0 127 40l38 -59q-34 -30 -77.5 -44t-95.5 -14q-58 0 -105 17.5t-80 51.5t-51 84t-18 115q0 61 18 109t50.5 81t76 50.5t94.5 17.5t89.5 -16.5t64.5 -46.5t39 -71.5t13 -90.5q0 -31 -5 -59h-351zM289 439q-62 0 -102 -38t-48 -104
h270v8q0 64 -31 99t-89 35zM334 746h110l-117 -159h-89z" />
    <glyph glyph-name="ecircumflex" unicode="&#xea;" horiz-adv-x="539" 
d="M137 229q5 -81 48.5 -123t124.5 -42q78 0 127 40l38 -59q-34 -30 -77.5 -44t-95.5 -14q-58 0 -105 17.5t-80 51.5t-51 84t-18 115q0 61 18 109t50.5 81t76 50.5t94.5 17.5t89.5 -16.5t64.5 -46.5t39 -71.5t13 -90.5q0 -31 -5 -59h-351zM289 439q-62 0 -102 -38t-48 -104
h270v8q0 64 -31 99t-89 35zM283 678l-81 -91h-90l127 160h87l127 -160h-92z" />
    <glyph glyph-name="edieresis" unicode="&#xeb;" horiz-adv-x="539" 
d="M137 229q5 -81 48.5 -123t124.5 -42q78 0 127 40l38 -59q-34 -30 -77.5 -44t-95.5 -14q-58 0 -105 17.5t-80 51.5t-51 84t-18 115q0 61 18 109t50.5 81t76 50.5t94.5 17.5t89.5 -16.5t64.5 -46.5t39 -71.5t13 -90.5q0 -31 -5 -59h-351zM289 439q-62 0 -102 -38t-48 -104
h270v8q0 64 -31 99t-89 35zM334 698h91v-98h-91v98zM141 698h91v-98h-91v98z" />
    <glyph glyph-name="igrave" unicode="&#xec;" horiz-adv-x="245" 
d="M167 0h-89v500h89v-500zM175 587h-89l-117 159h110z" />
    <glyph glyph-name="iacute" unicode="&#xed;" horiz-adv-x="245" 
d="M167 0h-89v500h89v-500zM166 746h110l-117 -159h-89z" />
    <glyph glyph-name="icircumflex" unicode="&#xee;" horiz-adv-x="245" 
d="M167 0h-89v500h89v-500zM123 678l-81 -91h-90l127 160h87l127 -160h-92z" />
    <glyph glyph-name="idieresis" unicode="&#xef;" horiz-adv-x="245" 
d="M167 0h-89v500h89v-500zM173 698h91v-98h-91v98zM-20 698h91v-98h-91v98z" />
    <glyph glyph-name="eth" unicode="&#xf0;" horiz-adv-x="570" 
d="M212 619q-26 11 -52 19.5t-57 17.5l23 74q42 -12 79.5 -25.5t72.5 -30.5l94 78l40 -48l-76 -63q90 -60 138 -150t48 -218q0 -74 -18 -128t-50.5 -89t-77.5 -52t-100 -17q-52 0 -94 17.5t-72 49.5t-46 77.5t-16 101.5t15.5 101.5t44 77.5t69 49t91.5 17q58 0 100.5 -24
t68.5 -69q-20 66 -60 116.5t-105 87.5l-103 -86l-41 47zM285 401q-69 0 -106.5 -43.5t-37.5 -124.5t37.5 -125t106.5 -44t108 44t39 124t-39 124.5t-108 44.5z" />
    <glyph glyph-name="ntilde" unicode="&#xf1;" horiz-adv-x="589" 
d="M165 425q23 41 66.5 64.5t104.5 23.5q86 0 131.5 -49t45.5 -144v-320h-89v311q0 64 -26.5 94.5t-83.5 30.5q-66 0 -106.5 -44t-40.5 -125v-267h-89v500h46q41 0 41 -36v-39zM288 623q-17 12 -27.5 17.5t-21.5 5.5q-35 0 -35 -40v-9h-76v10q0 52 25 81t75 29q25 0 42.5 -7
t40.5 -24q17 -12 27.5 -17.5t21.5 -5.5q35 0 35 40v9h76v-10q0 -52 -25 -81t-75 -29q-25 0 -42.5 7t-40.5 24z" />
    <glyph glyph-name="ograve" unicode="&#xf2;" horiz-adv-x="590" 
d="M542 250q0 -59 -18 -107.5t-50 -83t-78 -53.5t-101 -19q-56 0 -101.5 19t-77.5 53.5t-50 83t-18 107.5t18 107.5t50 83t77.5 53.5t101.5 19q55 0 101 -19t78 -53.5t50 -83t18 -107.5zM449 250q0 89 -40 137.5t-114 48.5t-114 -48.5t-40 -137.5t40 -137.5t114 -48.5
t114 48.5t40 137.5zM353 587h-89l-117 159h110z" />
    <glyph glyph-name="oacute" unicode="&#xf3;" horiz-adv-x="590" 
d="M542 250q0 -59 -18 -107.5t-50 -83t-78 -53.5t-101 -19q-56 0 -101.5 19t-77.5 53.5t-50 83t-18 107.5t18 107.5t50 83t77.5 53.5t101.5 19q55 0 101 -19t78 -53.5t50 -83t18 -107.5zM449 250q0 89 -40 137.5t-114 48.5t-114 -48.5t-40 -137.5t40 -137.5t114 -48.5
t114 48.5t40 137.5zM346 746h110l-117 -159h-89z" />
    <glyph glyph-name="ocircumflex" unicode="&#xf4;" horiz-adv-x="590" 
d="M542 250q0 -59 -18 -107.5t-50 -83t-78 -53.5t-101 -19q-56 0 -101.5 19t-77.5 53.5t-50 83t-18 107.5t18 107.5t50 83t77.5 53.5t101.5 19q55 0 101 -19t78 -53.5t50 -83t18 -107.5zM449 250q0 89 -40 137.5t-114 48.5t-114 -48.5t-40 -137.5t40 -137.5t114 -48.5
t114 48.5t40 137.5zM295 678l-81 -91h-90l127 160h87l127 -160h-92z" />
    <glyph glyph-name="otilde" unicode="&#xf5;" horiz-adv-x="590" 
d="M542 250q0 -59 -18 -107.5t-50 -83t-78 -53.5t-101 -19q-56 0 -101.5 19t-77.5 53.5t-50 83t-18 107.5t18 107.5t50 83t77.5 53.5t101.5 19q55 0 101 -19t78 -53.5t50 -83t18 -107.5zM449 250q0 89 -40 137.5t-114 48.5t-114 -48.5t-40 -137.5t40 -137.5t114 -48.5
t114 48.5t40 137.5zM284 623q-17 12 -27.5 17.5t-21.5 5.5q-35 0 -35 -40v-9h-76v10q0 52 25 81t75 29q25 0 42.5 -7t40.5 -24q17 -12 27.5 -17.5t21.5 -5.5q35 0 35 40v9h76v-10q0 -52 -25 -81t-75 -29q-25 0 -42.5 7t-40.5 24z" />
    <glyph glyph-name="odieresis" unicode="&#xf6;" horiz-adv-x="590" 
d="M542 250q0 -59 -18 -107.5t-50 -83t-78 -53.5t-101 -19q-56 0 -101.5 19t-77.5 53.5t-50 83t-18 107.5t18 107.5t50 83t77.5 53.5t101.5 19q55 0 101 -19t78 -53.5t50 -83t18 -107.5zM449 250q0 89 -40 137.5t-114 48.5t-114 -48.5t-40 -137.5t40 -137.5t114 -48.5
t114 48.5t40 137.5zM346 698h91v-98h-91v98zM153 698h91v-98h-91v98z" />
    <glyph glyph-name="divide" unicode="&#xf7;" horiz-adv-x="594" 
d="M248 112v105h99v-105h-99zM525 372v-76h-456v76h456zM248 452v105h99v-105h-99z" />
    <glyph glyph-name="oslash" unicode="&#xf8;" horiz-adv-x="590" 
d="M542 250q0 -59 -18 -107.5t-50 -83t-78 -53.5t-101 -19q-80 0 -138 38l-43 -54l-52 42l45 56q-29 35 -44 80.5t-15 100.5q0 59 18 107.5t50 83t77.5 53.5t101.5 19q40 0 74 -10t63 -28l44 54l52 -42l-45 -57q29 -34 44 -79.5t15 -100.5zM449 250q0 66 -23 110l-218 -272
q34 -24 87 -24q74 0 114 48.5t40 137.5zM141 250q0 -64 22 -110l219 272q-36 24 -87 24q-74 0 -114 -48.5t-40 -137.5z" />
    <glyph glyph-name="ugrave" unicode="&#xf9;" horiz-adv-x="577" 
d="M499 0h-45q-41 0 -41 36v40q-18 -35 -57 -62t-103 -27q-85 0 -132 52t-47 147v314h89v-307q0 -65 25.5 -97t79.5 -32q66 0 104 46t38 128v262h89v-500zM344 587h-89l-117 159h110z" />
    <glyph glyph-name="uacute" unicode="&#xfa;" horiz-adv-x="577" 
d="M499 0h-45q-41 0 -41 36v40q-18 -35 -57 -62t-103 -27q-85 0 -132 52t-47 147v314h89v-307q0 -65 25.5 -97t79.5 -32q66 0 104 46t38 128v262h89v-500zM338 746h110l-117 -159h-89z" />
    <glyph glyph-name="ucircumflex" unicode="&#xfb;" horiz-adv-x="577" 
d="M499 0h-45q-41 0 -41 36v40q-18 -35 -57 -62t-103 -27q-85 0 -132 52t-47 147v314h89v-307q0 -65 25.5 -97t79.5 -32q66 0 104 46t38 128v262h89v-500zM287 678l-81 -91h-90l127 160h87l127 -160h-92z" />
    <glyph glyph-name="udieresis" unicode="&#xfc;" horiz-adv-x="577" 
d="M499 0h-45q-41 0 -41 36v40q-18 -35 -57 -62t-103 -27q-85 0 -132 52t-47 147v314h89v-307q0 -65 25.5 -97t79.5 -32q66 0 104 46t38 128v262h89v-500zM338 698h91v-98h-91v98zM145 698h91v-98h-91v98z" />
    <glyph glyph-name="yacute" unicode="&#xfd;" horiz-adv-x="508" 
d="M104 500l151 -407l153 407h90l-227 -570q-14 -34 -27 -61.5t-31 -46.5t-43.5 -29t-62.5 -10q-17 0 -28 1.5t-19 3.5v69h26q21 0 36.5 3t27 11t20.5 22.5t18 37.5l24 64l-202 505h94zM306 746h110l-117 -159h-89z" />
    <glyph glyph-name="thorn" unicode="&#xfe;" horiz-adv-x="604" 
d="M326 -13q-54 0 -95 21t-64 57v-275h-89v927h89v-294q22 41 67.5 65.5t104.5 24.5q52 0 92.5 -18t68 -51.5t42 -80t14.5 -103.5q0 -59 -15 -109t-44 -86.5t-72 -57t-99 -20.5zM165 245q0 -85 39.5 -133t110.5 -48q72 0 110 50t38 141q0 88 -35.5 134.5t-104.5 46.5
q-75 0 -116.5 -51.5t-41.5 -139.5z" />
    <glyph glyph-name="ydieresis" unicode="&#xff;" horiz-adv-x="508" 
d="M104 500l151 -407l153 407h90l-227 -570q-14 -34 -27 -61.5t-31 -46.5t-43.5 -29t-62.5 -10q-17 0 -28 1.5t-19 3.5v69h26q21 0 36.5 3t27 11t20.5 22.5t18 37.5l24 64l-202 505h94zM306 698h91v-98h-91v98zM113 698h91v-98h-91v98z" />
    <glyph glyph-name="Amacron" unicode="&#x100;" horiz-adv-x="649" 
d="M468 191h-295l-70 -191h-91l264 690h97l264 -690h-99zM201 268h239l-120 323zM160 786v68h328v-68h-328z" />
    <glyph glyph-name="amacron" unicode="&#x101;" horiz-adv-x="519" 
d="M445 -3q-40 0 -58.5 20.5t-20.5 58.5q-21 -41 -63.5 -64t-99.5 -23q-39 0 -69.5 11.5t-51.5 32t-31.5 48.5t-10.5 60q0 42 17 72t45.5 48.5t65.5 27.5t77 9h110v30q0 52 -26 81.5t-93 29.5q-40 0 -76.5 -12t-69.5 -35l-36 60q39 30 87.5 45.5t102.5 15.5q40 0 75.5 -9
t62 -31t42 -57.5t15.5 -89.5v-223q0 -22 7.5 -30t31.5 -8h11v-62q-8 -2 -20 -4t-24 -2zM247 233q-59 0 -90 -21.5t-31 -66.5q0 -38 23 -60t71 -22q33 0 58 11t42.5 30t26 45.5t8.5 56.5v27h-108zM79 617v67h327v-67h-327z" />
    <glyph glyph-name="Abreve" unicode="&#x102;" horiz-adv-x="649" 
d="M468 191h-295l-70 -191h-91l264 690h97l264 -690h-99zM201 268h239l-120 323zM324 823q31 0 49.5 15.5t18.5 46.5v9h75v-10q0 -60 -37.5 -93.5t-105.5 -33.5t-105.5 33.5t-37.5 93.5v10h75v-9q0 -31 18.5 -46.5t49.5 -15.5z" />
    <glyph glyph-name="abreve" unicode="&#x103;" horiz-adv-x="519" 
d="M445 -3q-40 0 -58.5 20.5t-20.5 58.5q-21 -41 -63.5 -64t-99.5 -23q-39 0 -69.5 11.5t-51.5 32t-31.5 48.5t-10.5 60q0 42 17 72t45.5 48.5t65.5 27.5t77 9h110v30q0 52 -26 81.5t-93 29.5q-40 0 -76.5 -12t-69.5 -35l-36 60q39 30 87.5 45.5t102.5 15.5q40 0 75.5 -9
t62 -31t42 -57.5t15.5 -89.5v-223q0 -22 7.5 -30t31.5 -8h11v-62q-8 -2 -20 -4t-24 -2zM247 233q-59 0 -90 -21.5t-31 -66.5q0 -38 23 -60t71 -22q33 0 58 11t42.5 30t26 45.5t8.5 56.5v27h-108zM243 651q69 0 69 69v9h74v-10q0 -60 -38.5 -96.5t-104.5 -36.5t-104.5 36.5
t-38.5 96.5v10h74v-9q0 -69 69 -69z" />
    <glyph glyph-name="Aogonek" unicode="&#x104;" horiz-adv-x="649" 
d="M468 191h-295l-70 -191h-91l264 690h97l264 -690q-40 -25 -63 -54t-23 -64q0 -46 51 -46q26 0 48 8l12 -58q-14 -5 -32.5 -8t-40.5 -3q-62 0 -89 26t-27 67q0 38 22 72t64 60h-21zM201 268h239l-120 323z" />
    <glyph glyph-name="aogonek" unicode="&#x105;" horiz-adv-x="519" 
d="M316 -132q0 40 25.5 72.5t71.5 60.5q-44 13 -47 75q-21 -41 -63.5 -64t-99.5 -23q-39 0 -69.5 11.5t-51.5 32t-31.5 48.5t-10.5 60q0 42 17 72t45.5 48.5t65.5 27.5t77 9h110v30q0 52 -26 81.5t-93 29.5q-40 0 -76.5 -12t-69.5 -35l-36 60q39 30 87.5 45.5t102.5 15.5
q40 0 75.5 -9t62 -31t42 -57.5t15.5 -89.5v-223q0 -22 7.5 -30t31.5 -8h11v-62q-19 -12 -37 -25.5t-31.5 -29t-22 -32.5t-8.5 -36q0 -48 55 -48q26 0 48 8l12 -54q-14 -5 -32 -8t-41 -3q-62 0 -89 26t-27 67zM247 233q-59 0 -90 -21.5t-31 -66.5q0 -38 23 -60t71 -22
q33 0 58 11t42.5 30t26 45.5t8.5 56.5v27h-108z" />
    <glyph glyph-name="Cacute" unicode="&#x106;" horiz-adv-x="632" 
d="M592 53q-36 -31 -89 -49.5t-122 -18.5q-83 0 -144 28.5t-101.5 77.5t-60 115t-19.5 141q0 85 23.5 151.5t67 112.5t104.5 70t136 24q63 0 112.5 -16.5t85.5 -45.5l-43 -70q-32 23 -68 35t-83 12q-112 0 -174.5 -71t-62.5 -203q0 -133 62.5 -204.5t169.5 -71.5
q49 0 89.5 13.5t72.5 39.5zM442 888h117l-130 -128h-98z" />
    <glyph glyph-name="cacute" unicode="&#x107;" horiz-adv-x="485" 
d="M141 251q0 -90 44.5 -138.5t123.5 -48.5q29 0 59.5 8t55.5 26l35 -62q-61 -49 -158 -49q-64 0 -111.5 20t-79 54.5t-47 82t-15.5 103.5q0 60 17.5 109.5t50.5 84t80.5 53.5t107.5 19q93 0 153 -48l-36 -62q-18 13 -46 23t-66 10q-78 0 -123 -47t-45 -138zM340 746h110
l-117 -159h-89z" />
    <glyph glyph-name="Ccircumflex" unicode="&#x108;" horiz-adv-x="632" 
d="M592 53q-36 -31 -89 -49.5t-122 -18.5q-83 0 -144 28.5t-101.5 77.5t-60 115t-19.5 141q0 85 23.5 151.5t67 112.5t104.5 70t136 24q63 0 112.5 -16.5t85.5 -45.5l-43 -70q-32 23 -68 35t-83 12q-112 0 -174.5 -71t-62.5 -203q0 -133 62.5 -204.5t169.5 -71.5
q49 0 89.5 13.5t72.5 39.5zM379 833l-82 -73h-92l130 139h87l131 -139h-94z" />
    <glyph glyph-name="ccircumflex" unicode="&#x109;" horiz-adv-x="485" 
d="M141 251q0 -90 44.5 -138.5t123.5 -48.5q29 0 59.5 8t55.5 26l35 -62q-61 -49 -158 -49q-64 0 -111.5 20t-79 54.5t-47 82t-15.5 103.5q0 60 17.5 109.5t50.5 84t80.5 53.5t107.5 19q93 0 153 -48l-36 -62q-18 13 -46 23t-66 10q-78 0 -123 -47t-45 -138zM289 678
l-81 -91h-90l127 160h87l127 -160h-92z" />
    <glyph glyph-name="Cdotaccent" unicode="&#x10a;" horiz-adv-x="632" 
d="M592 53q-36 -31 -89 -49.5t-122 -18.5q-83 0 -144 28.5t-101.5 77.5t-60 115t-19.5 141q0 85 23.5 151.5t67 112.5t104.5 70t136 24q63 0 112.5 -16.5t85.5 -45.5l-43 -70q-32 23 -68 35t-83 12q-112 0 -174.5 -71t-62.5 -203q0 -133 62.5 -204.5t169.5 -71.5
q49 0 89.5 13.5t72.5 39.5zM332 880h95v-102h-95v102z" />
    <glyph glyph-name="cdotaccent" unicode="&#x10b;" horiz-adv-x="485" 
d="M141 251q0 -90 44.5 -138.5t123.5 -48.5q29 0 59.5 8t55.5 26l35 -62q-61 -49 -158 -49q-64 0 -111.5 20t-79 54.5t-47 82t-15.5 103.5q0 60 17.5 109.5t50.5 84t80.5 53.5t107.5 19q93 0 153 -48l-36 -62q-18 13 -46 23t-66 10q-78 0 -123 -47t-45 -138zM243 700h93
v-100h-93v100z" />
    <glyph glyph-name="Ccaron" unicode="&#x10c;" horiz-adv-x="632" 
d="M592 53q-36 -31 -89 -49.5t-122 -18.5q-83 0 -144 28.5t-101.5 77.5t-60 115t-19.5 141q0 85 23.5 151.5t67 112.5t104.5 70t136 24q63 0 112.5 -16.5t85.5 -45.5l-43 -70q-32 23 -68 35t-83 12q-112 0 -174.5 -71t-62.5 -203q0 -133 62.5 -204.5t169.5 -71.5
q49 0 89.5 13.5t72.5 39.5zM299 899l80 -74l82 74h92l-130 -139h-87l-131 139h94z" />
    <glyph glyph-name="ccaron" unicode="&#x10d;" horiz-adv-x="485" 
d="M141 251q0 -90 44.5 -138.5t123.5 -48.5q29 0 59.5 8t55.5 26l35 -62q-61 -49 -158 -49q-64 0 -111.5 20t-79 54.5t-47 82t-15.5 103.5q0 60 17.5 109.5t50.5 84t80.5 53.5t107.5 19q93 0 153 -48l-36 -62q-18 13 -46 23t-66 10q-78 0 -123 -47t-45 -138zM210 747l79 -92
l80 92h90l-127 -160h-87l-127 160h92z" />
    <glyph glyph-name="Dcaron" unicode="&#x10e;" horiz-adv-x="693" 
d="M88 690h208q169 0 255 -87t86 -255q0 -171 -87 -259.5t-252 -88.5h-210v690zM182 79h107q130 0 190 64t60 203t-60 202t-190 63h-107v-532zM223 899l80 -74l82 74h92l-130 -139h-87l-131 139h94z" />
    <glyph glyph-name="dcaron" unicode="&#x10f;" horiz-adv-x="634" 
d="M526 0h-45q-41 0 -41 36v38q-23 -39 -67 -63t-102 -24q-54 0 -95.5 19t-70 54t-43 83t-14.5 107q0 58 15.5 106t44.5 83t72 54.5t97 19.5t95 -21t65 -58v283h89v-717zM440 250q0 91 -38 138.5t-111 47.5q-72 0 -111 -48.5t-39 -137.5q0 -92 38.5 -139t111.5 -47
q70 0 109.5 49.5t39.5 136.5zM581 718h81l-22 -179h-59v179z" />
    <glyph glyph-name="Dcroat" unicode="&#x110;" horiz-adv-x="703" 
d="M98 322h-82v72h82v296h208q169 0 255 -87t86 -255q0 -171 -87 -259.5t-252 -88.5h-210v322zM192 394h159v-72h-159v-243h107q130 0 190 64t60 203t-60 202t-190 63h-107v-217z" />
    <glyph glyph-name="dcroat" unicode="&#x111;" horiz-adv-x="604" 
d="M526 574v-574h-45q-41 0 -41 36v36q-24 -38 -67.5 -61.5t-103.5 -23.5q-52 0 -93 18.5t-69.5 52t-43.5 80.5t-15 103q0 57 15.5 105t44.5 82t71 53t95 19q56 0 97.5 -21t65.5 -59v154h-171v64h171v79h89v-79h72v-64h-72zM440 246q0 82 -38 129.5t-111 47.5
q-72 0 -111 -47t-39 -134q0 -88 39 -133t108 -45q75 0 113.5 49.5t38.5 132.5z" />
    <glyph glyph-name="Emacron" unicode="&#x112;" horiz-adv-x="574" 
d="M182 308v-229h350v-79h-444v690h444v-79h-350v-224h294v-79h-294zM154 786v68h328v-68h-328z" />
    <glyph glyph-name="emacron" unicode="&#x113;" horiz-adv-x="539" 
d="M137 229q5 -81 48.5 -123t124.5 -42q78 0 127 40l38 -59q-34 -30 -77.5 -44t-95.5 -14q-58 0 -105 17.5t-80 51.5t-51 84t-18 115q0 61 18 109t50.5 81t76 50.5t94.5 17.5t89.5 -16.5t64.5 -46.5t39 -71.5t13 -90.5q0 -31 -5 -59h-351zM289 439q-62 0 -102 -38t-48 -104
h270v8q0 64 -31 99t-89 35zM119 617v67h327v-67h-327z" />
    <glyph glyph-name="Ebreve" unicode="&#x114;" horiz-adv-x="574" 
d="M182 308v-229h350v-79h-444v690h444v-79h-350v-224h294v-79h-294zM318 823q31 0 49.5 15.5t18.5 46.5v9h75v-10q0 -60 -37.5 -93.5t-105.5 -33.5t-105.5 33.5t-37.5 93.5v10h75v-9q0 -31 18.5 -46.5t49.5 -15.5z" />
    <glyph glyph-name="ebreve" unicode="&#x115;" horiz-adv-x="539" 
d="M137 229q5 -81 48.5 -123t124.5 -42q78 0 127 40l38 -59q-34 -30 -77.5 -44t-95.5 -14q-58 0 -105 17.5t-80 51.5t-51 84t-18 115q0 61 18 109t50.5 81t76 50.5t94.5 17.5t89.5 -16.5t64.5 -46.5t39 -71.5t13 -90.5q0 -31 -5 -59h-351zM289 439q-62 0 -102 -38t-48 -104
h270v8q0 64 -31 99t-89 35zM283 651q69 0 69 69v9h74v-10q0 -60 -38.5 -96.5t-104.5 -36.5t-104.5 36.5t-38.5 96.5v10h74v-9q0 -69 69 -69z" />
    <glyph glyph-name="Edotaccent" unicode="&#x116;" horiz-adv-x="574" 
d="M182 308v-229h350v-79h-444v690h444v-79h-350v-224h294v-79h-294zM271 880h95v-102h-95v102z" />
    <glyph glyph-name="edotaccent" unicode="&#x117;" horiz-adv-x="539" 
d="M137 229q5 -81 48.5 -123t124.5 -42q78 0 127 40l38 -59q-34 -30 -77.5 -44t-95.5 -14q-58 0 -105 17.5t-80 51.5t-51 84t-18 115q0 61 18 109t50.5 81t76 50.5t94.5 17.5t89.5 -16.5t64.5 -46.5t39 -71.5t13 -90.5q0 -31 -5 -59h-351zM289 439q-62 0 -102 -38t-48 -104
h270v8q0 64 -31 99t-89 35zM237 700h93v-100h-93v100z" />
    <glyph glyph-name="Eogonek" unicode="&#x118;" horiz-adv-x="574" 
d="M182 308v-229h350v-79q-40 -25 -63 -54t-23 -64q0 -46 51 -46q26 0 48 8l12 -58q-14 -5 -32.5 -8t-40.5 -3q-62 0 -89 26t-27 67q0 38 22 72t64 60h-366v690h444v-79h-350v-224h294v-79h-294z" />
    <glyph glyph-name="eogonek" unicode="&#x119;" horiz-adv-x="539" 
d="M249 -132q0 35 16.5 65t46.5 54h-10q-58 0 -105 17.5t-80 51.5t-51 84t-18 115q0 61 18 109t50.5 81t76 50.5t94.5 17.5t89.5 -16.5t64.5 -46.5t39 -71.5t13 -90.5q0 -31 -5 -59h-351q5 -81 48.5 -123t124.5 -42q78 0 127 40l38 -59q-13 -11 -27 -19.5t-27 -15.5
q-45 -24 -71.5 -59t-26.5 -71q0 -48 55 -48q26 0 48 8l12 -54q-14 -5 -32 -8t-41 -3q-62 0 -89 26t-27 67zM289 439q-62 0 -102 -38t-48 -104h270v8q0 64 -31 99t-89 35z" />
    <glyph glyph-name="Ecaron" unicode="&#x11a;" horiz-adv-x="574" 
d="M182 308v-229h350v-79h-444v690h444v-79h-350v-224h294v-79h-294zM238 899l80 -74l82 74h92l-130 -139h-87l-131 139h94z" />
    <glyph glyph-name="ecaron" unicode="&#x11b;" horiz-adv-x="539" 
d="M137 229q5 -81 48.5 -123t124.5 -42q78 0 127 40l38 -59q-34 -30 -77.5 -44t-95.5 -14q-58 0 -105 17.5t-80 51.5t-51 84t-18 115q0 61 18 109t50.5 81t76 50.5t94.5 17.5t89.5 -16.5t64.5 -46.5t39 -71.5t13 -90.5q0 -31 -5 -59h-351zM289 439q-62 0 -102 -38t-48 -104
h270v8q0 64 -31 99t-89 35zM204 747l79 -92l80 92h90l-127 -160h-87l-127 160h92z" />
    <glyph glyph-name="Gcircumflex" unicode="&#x11c;" horiz-adv-x="682" 
d="M416 70q65 0 109 14v190h-159v76h248v-321q-18 -11 -42.5 -19t-53 -13.5t-59 -8.5t-58.5 -3q-78 0 -141.5 23t-109 68.5t-70 113.5t-24.5 157q0 86 24.5 152.5t69.5 112.5t108.5 69.5t141.5 23.5q62 0 115.5 -15.5t91.5 -45.5l-42 -71q-68 47 -160 47q-122 0 -186.5 -70
t-64.5 -206q0 -274 262 -274zM388 833l-82 -73h-92l130 139h87l131 -139h-94z" />
    <glyph glyph-name="gcircumflex" unicode="&#x11d;" horiz-adv-x="550" 
d="M34 -65q0 45 23 74t65 40q-32 9 -48.5 31.5t-16.5 55.5q0 27 18.5 50.5t50.5 32.5q-27 20 -43.5 52t-16.5 73q0 38 15 69t42 53.5t64.5 34.5t83.5 12q32 0 61 -6t51 -16h143v-62h-81q15 -17 24.5 -39.5t9.5 -48.5q0 -36 -14.5 -67t-41.5 -53t-65 -34.5t-84 -12.5
q-25 0 -46 3t-42 11q-46 -12 -46 -52q0 -23 18.5 -35.5t57.5 -12.5h105q38 0 72.5 -7t61 -23t42.5 -43t16 -66q0 -42 -19.5 -74t-53.5 -53.5t-79.5 -32.5t-97.5 -11t-94 10.5t-72 30.5t-46.5 49t-16.5 67zM222 20q-51 0 -78 -19.5t-27 -58.5q0 -50 42.5 -73t110.5 -23
q73 0 115 25t42 73q0 76 -112 76h-93zM273 240q58 0 89 28.5t31 74.5t-31 75t-89 29t-89.5 -29t-31.5 -75t31.5 -74.5t89.5 -28.5zM281 678l-81 -91h-90l127 160h87l127 -160h-92z" />
    <glyph glyph-name="Gbreve" unicode="&#x11e;" horiz-adv-x="682" 
d="M416 70q65 0 109 14v190h-159v76h248v-321q-18 -11 -42.5 -19t-53 -13.5t-59 -8.5t-58.5 -3q-78 0 -141.5 23t-109 68.5t-70 113.5t-24.5 157q0 86 24.5 152.5t69.5 112.5t108.5 69.5t141.5 23.5q62 0 115.5 -15.5t91.5 -45.5l-42 -71q-68 47 -160 47q-122 0 -186.5 -70
t-64.5 -206q0 -274 262 -274zM388 823q31 0 49.5 15.5t18.5 46.5v9h75v-10q0 -60 -37.5 -93.5t-105.5 -33.5t-105.5 33.5t-37.5 93.5v10h75v-9q0 -31 18.5 -46.5t49.5 -15.5z" />
    <glyph glyph-name="gbreve" unicode="&#x11f;" horiz-adv-x="550" 
d="M34 -65q0 45 23 74t65 40q-32 9 -48.5 31.5t-16.5 55.5q0 27 18.5 50.5t50.5 32.5q-27 20 -43.5 52t-16.5 73q0 38 15 69t42 53.5t64.5 34.5t83.5 12q32 0 61 -6t51 -16h143v-62h-81q15 -17 24.5 -39.5t9.5 -48.5q0 -36 -14.5 -67t-41.5 -53t-65 -34.5t-84 -12.5
q-25 0 -46 3t-42 11q-46 -12 -46 -52q0 -23 18.5 -35.5t57.5 -12.5h105q38 0 72.5 -7t61 -23t42.5 -43t16 -66q0 -42 -19.5 -74t-53.5 -53.5t-79.5 -32.5t-97.5 -11t-94 10.5t-72 30.5t-46.5 49t-16.5 67zM222 20q-51 0 -78 -19.5t-27 -58.5q0 -50 42.5 -73t110.5 -23
q73 0 115 25t42 73q0 76 -112 76h-93zM273 240q58 0 89 28.5t31 74.5t-31 75t-89 29t-89.5 -29t-31.5 -75t31.5 -74.5t89.5 -28.5zM280 651q69 0 69 69v9h74v-10q0 -60 -38.5 -96.5t-104.5 -36.5t-104.5 36.5t-38.5 96.5v10h74v-9q0 -69 69 -69z" />
    <glyph glyph-name="Gdotaccent" unicode="&#x120;" horiz-adv-x="682" 
d="M416 70q65 0 109 14v190h-159v76h248v-321q-18 -11 -42.5 -19t-53 -13.5t-59 -8.5t-58.5 -3q-78 0 -141.5 23t-109 68.5t-70 113.5t-24.5 157q0 86 24.5 152.5t69.5 112.5t108.5 69.5t141.5 23.5q62 0 115.5 -15.5t91.5 -45.5l-42 -71q-68 47 -160 47q-122 0 -186.5 -70
t-64.5 -206q0 -274 262 -274zM341 880h95v-102h-95v102z" />
    <glyph glyph-name="gdotaccent" unicode="&#x121;" horiz-adv-x="550" 
d="M34 -65q0 45 23 74t65 40q-32 9 -48.5 31.5t-16.5 55.5q0 27 18.5 50.5t50.5 32.5q-27 20 -43.5 52t-16.5 73q0 38 15 69t42 53.5t64.5 34.5t83.5 12q32 0 61 -6t51 -16h143v-62h-81q15 -17 24.5 -39.5t9.5 -48.5q0 -36 -14.5 -67t-41.5 -53t-65 -34.5t-84 -12.5
q-25 0 -46 3t-42 11q-46 -12 -46 -52q0 -23 18.5 -35.5t57.5 -12.5h105q38 0 72.5 -7t61 -23t42.5 -43t16 -66q0 -42 -19.5 -74t-53.5 -53.5t-79.5 -32.5t-97.5 -11t-94 10.5t-72 30.5t-46.5 49t-16.5 67zM222 20q-51 0 -78 -19.5t-27 -58.5q0 -50 42.5 -73t110.5 -23
q73 0 115 25t42 73q0 76 -112 76h-93zM273 240q58 0 89 28.5t31 74.5t-31 75t-89 29t-89.5 -29t-31.5 -75t31.5 -74.5t89.5 -28.5zM233 700h93v-100h-93v100z" />
    <glyph glyph-name="uni0122" unicode="&#x122;" horiz-adv-x="682" 
d="M416 70q65 0 109 14v190h-159v76h248v-321q-18 -11 -42.5 -19t-53 -13.5t-59 -8.5t-58.5 -3q-78 0 -141.5 23t-109 68.5t-70 113.5t-24.5 157q0 86 24.5 152.5t69.5 112.5t108.5 69.5t141.5 23.5q62 0 115.5 -15.5t91.5 -45.5l-42 -71q-68 47 -160 47q-122 0 -186.5 -70
t-64.5 -206q0 -274 262 -274zM362 -260q11 23 17 48t6 45h-34v98h95v-60q0 -42 -8.5 -82.5t-22.5 -69.5z" />
    <glyph glyph-name="uni0123" unicode="&#x123;" horiz-adv-x="550" 
d="M34 -65q0 45 23 74t65 40q-32 9 -48.5 31.5t-16.5 55.5q0 27 18.5 50.5t50.5 32.5q-27 20 -43.5 52t-16.5 73q0 38 15 69t42 53.5t64.5 34.5t83.5 12q32 0 61 -6t51 -16h143v-62h-81q15 -17 24.5 -39.5t9.5 -48.5q0 -36 -14.5 -67t-41.5 -53t-65 -34.5t-84 -12.5
q-25 0 -46 3t-42 11q-46 -12 -46 -52q0 -23 18.5 -35.5t57.5 -12.5h105q38 0 72.5 -7t61 -23t42.5 -43t16 -66q0 -42 -19.5 -74t-53.5 -53.5t-79.5 -32.5t-97.5 -11t-94 10.5t-72 30.5t-46.5 49t-16.5 67zM222 20q-51 0 -78 -19.5t-27 -58.5q0 -50 42.5 -73t110.5 -23
q73 0 115 25t42 73q0 76 -112 76h-93zM273 240q58 0 89 28.5t31 74.5t-31 75t-89 29t-89.5 -29t-31.5 -75t31.5 -74.5t89.5 -28.5zM311 793q-12 -23 -19 -51t-7 -48h39v-107h-105v64q0 45 8.5 89.5t25.5 76.5z" />
    <glyph glyph-name="Hcircumflex" unicode="&#x124;" horiz-adv-x="704" 
d="M522 0v310h-340v-310h-94v690h94v-301h340v301h94v-690h-94zM352 833l-82 -73h-92l130 139h87l131 -139h-94z" />
    <glyph glyph-name="hcircumflex" unicode="&#x125;" horiz-adv-x="589" 
d="M167 717v-289q23 39 66 62t103 23q86 0 131.5 -49t45.5 -144v-320h-89v311q0 64 -26.5 94.5t-83.5 30.5q-66 0 -106.5 -44t-40.5 -125v-267h-89v717h89zM122 848l-82 -73h-92l130 139h87l131 -139h-94z" />
    <glyph glyph-name="Hbar" unicode="&#x126;" horiz-adv-x="724" 
d="M532 0v310h-340v-310h-94v494h-82v70h82v126h94v-126h340v126h94v-126h82v-70h-82v-494h-94zM532 389v105h-340v-105h340z" />
    <glyph glyph-name="hbar" unicode="&#x127;" horiz-adv-x="589" 
d="M167 574v-159q23 39 66 62t103 23q86 0 131.5 -49t45.5 -144v-307h-89v298q0 64 -26.5 94.5t-83.5 30.5q-66 0 -106.5 -44t-40.5 -125v-254h-89v574h-72v64h72v79h89v-79h179v-64h-179z" />
    <glyph glyph-name="Itilde" unicode="&#x128;" horiz-adv-x="270" 
d="M182 0h-94v690h94v-690zM125 784q-17 11 -28 17t-23 6q-14 0 -23 -8.5t-9 -29.5v-9h-78v10q0 52 24.5 81t75.5 29q24 0 42 -7t41 -22q15 -10 26 -16.5t25 -6.5t22.5 8.5t8.5 29.5v9h78v-10q0 -52 -25.5 -81t-76.5 -29q-24 0 -40.5 7t-39.5 22z" />
    <glyph glyph-name="itilde" unicode="&#x129;" horiz-adv-x="245" 
d="M167 0h-89v500h89v-500zM111 623q-17 12 -27.5 17.5t-21.5 5.5q-35 0 -35 -40v-9h-76v10q0 52 25 81t75 29q25 0 42.5 -7t40.5 -24q17 -12 27.5 -17.5t21.5 -5.5q35 0 35 40v9h76v-10q0 -52 -25 -81t-75 -29q-25 0 -42.5 7t-40.5 24z" />
    <glyph glyph-name="Imacron" unicode="&#x12a;" horiz-adv-x="270" 
d="M182 0h-94v690h94v-690zM-29 786v68h328v-68h-328z" />
    <glyph glyph-name="imacron" unicode="&#x12b;" horiz-adv-x="245" 
d="M167 0h-89v500h89v-500zM-41 617v67h327v-67h-327z" />
    <glyph glyph-name="Ibreve" unicode="&#x12c;" horiz-adv-x="270" 
d="M182 0h-94v690h94v-690zM135 823q31 0 49.5 15.5t18.5 46.5v9h75v-10q0 -60 -37.5 -93.5t-105.5 -33.5t-105.5 33.5t-37.5 93.5v10h75v-9q0 -31 18.5 -46.5t49.5 -15.5z" />
    <glyph glyph-name="ibreve" unicode="&#x12d;" horiz-adv-x="245" 
d="M167 0h-89v500h89v-500zM122 651q69 0 69 69v9h74v-10q0 -60 -38.5 -96.5t-104.5 -36.5t-104.5 36.5t-38.5 96.5v10h74v-9q0 -69 69 -69z" />
    <glyph glyph-name="Iogonek" unicode="&#x12e;" horiz-adv-x="270" 
d="M182 690v-690q-40 -25 -63 -54t-23 -64q0 -46 51 -46q26 0 48 8l12 -58q-14 -5 -32.5 -8t-40.5 -3q-62 0 -89 26t-27 67q0 38 22 72t64 60h-16v690h94z" />
    <glyph glyph-name="iogonek" unicode="&#x12f;" horiz-adv-x="245" 
d="M167 500v-500q-38 -24 -64 -53t-26 -67q0 -48 55 -48q26 0 48 8l12 -54q-14 -5 -32 -8t-41 -3q-62 0 -89 26t-27 67q0 40 23 73t67 59h-15v500h89zM76 700h93v-100h-93v100z" />
    <glyph glyph-name="Idotaccent" unicode="&#x130;" horiz-adv-x="270" 
d="M182 0h-94v690h94v-690zM88 880h95v-102h-95v102z" />
    <glyph glyph-name="dotlessi" unicode="&#x131;" horiz-adv-x="245" 
d="M167 0h-89v500h89v-500z" />
    <glyph glyph-name="IJ" unicode="&#x132;" horiz-adv-x="747" 
d="M182 0h-94v690h94v-690zM299 116q34 -26 68.5 -36.5t73.5 -10.5q67 0 97.5 39t30.5 118v464h94v-465q0 -115 -58 -177.5t-167 -62.5q-56 0 -104.5 19t-78.5 45z" />
    <glyph glyph-name="ij" unicode="&#x133;" horiz-adv-x="490" 
d="M167 0h-89v500h89v-500zM76 700h93v-100h-93v100zM248 -143q24 0 38.5 3t23 11t11 20.5t2.5 32.5v576h89v-582q0 -67 -30 -101t-98 -34q-11 0 -23 1t-22 4v69h9zM321 700h93v-100h-93v100z" />
    <glyph glyph-name="Jcircumflex" unicode="&#x134;" horiz-adv-x="510" 
d="M62 116q34 -26 68.5 -36.5t73.5 -10.5q67 0 97.5 39t30.5 118v464h94v-465q0 -115 -58 -177.5t-167 -62.5q-56 0 -104.5 19t-78.5 45zM380 833l-82 -73h-92l130 139h87l131 -139h-94z" />
    <glyph glyph-name="jcircumflex" unicode="&#x135;" horiz-adv-x="245" 
d="M3 -143q24 0 38.5 3t23 11t11 20.5t2.5 32.5v576h89v-582q0 -67 -30 -101t-98 -34q-11 0 -23 1t-22 4v69h9zM123 678l-81 -91h-90l127 160h87l127 -160h-92z" />
    <glyph glyph-name="uni0136" unicode="&#x136;" horiz-adv-x="629" 
d="M182 0h-94v690h94v-298h17q22 0 35.5 6.5t27.5 23.5l224 268h111l-281 -328l307 -362h-122l-228 276q-17 21 -32.5 31.5t-41.5 10.5h-17v-318zM298 -260q11 23 17 48t6 45h-34v98h95v-60q0 -42 -8.5 -82.5t-22.5 -69.5z" />
    <glyph glyph-name="uni0137" unicode="&#x137;" horiz-adv-x="526" 
d="M289 280l233 -280h-114l-164 206q-14 18 -27 26t-34 8h-16v-240h-89v717h89v-407h15q20 0 32 6t27 22l149 162h106zM252 -261q11 23 17 49t6 46h-35v97h92v-60q0 -42 -7.5 -82.5t-22.5 -69.5z" />
    <glyph glyph-name="kgreenlandic" unicode="&#x138;" horiz-adv-x="526" 
d="M167 293h15q20 0 32.5 5.5t26.5 22.5l149 179h106l-208 -234l234 -266h-114l-164 189q-15 17 -27.5 25.5t-33.5 8.5h-16v-223h-89v500h89v-207z" />
    <glyph glyph-name="Lacute" unicode="&#x139;" horiz-adv-x="531" 
d="M182 79h329v-79h-423v690h94v-611zM198 888h117l-130 -128h-98z" />
    <glyph glyph-name="lacute" unicode="&#x13a;" horiz-adv-x="277" 
d="M165 717v-581q0 -42 13.5 -54.5t49.5 -12.5h7v-70q-9 -2 -19 -3t-21 -1q-60 0 -89.5 32.5t-29.5 102.5v587h89zM184 903h117l-130 -128h-98z" />
    <glyph glyph-name="uni013B" unicode="&#x13b;" horiz-adv-x="531" 
d="M182 79h329v-79h-423v690h94v-611zM268 -260q11 23 17 48t6 45h-34v98h95v-60q0 -42 -8.5 -82.5t-22.5 -69.5z" />
    <glyph glyph-name="uni013C" unicode="&#x13c;" horiz-adv-x="277" 
d="M165 717v-581q0 -42 13.5 -54.5t49.5 -12.5h7v-70q-9 -2 -19 -3t-21 -1q-60 0 -89.5 32.5t-29.5 102.5v587h89zM132 -261q11 23 17 49t6 46h-35v97h92v-60q0 -42 -7.5 -82.5t-22.5 -69.5z" />
    <glyph glyph-name="Lcaron" unicode="&#x13d;" horiz-adv-x="531" 
d="M182 79h329v-79h-423v690h94v-611zM278 718h81l-22 -179h-59v179z" />
    <glyph glyph-name="lcaron" unicode="&#x13e;" horiz-adv-x="274" 
d="M165 717v-581q0 -42 13.5 -54.5t49.5 -12.5h7v-70q-9 -2 -19 -3t-21 -1q-60 0 -89.5 32.5t-29.5 102.5v587h89zM221 718h81l-22 -179h-59v179z" />
    <glyph glyph-name="Ldot" unicode="&#x13f;" horiz-adv-x="531" 
d="M182 79h329v-79h-423v690h94v-611zM339 298v105h99v-105h-99z" />
    <glyph glyph-name="ldot" unicode="&#x140;" horiz-adv-x="342" 
d="M165 717v-581q0 -42 13.5 -54.5t49.5 -12.5h7v-70q-9 -2 -19 -3t-21 -1q-60 0 -89.5 32.5t-29.5 102.5v587h89zM239 296v105h99v-105h-99z" />
    <glyph glyph-name="Lslash" unicode="&#x141;" horiz-adv-x="573" 
d="M224 306v-227h329v-79h-423v251l-77 -45l-35 58l112 66v360h94v-304l169 100l35 -61z" />
    <glyph glyph-name="lslash" unicode="&#x142;" horiz-adv-x="277" 
d="M165 355v-219q0 -42 13.5 -54.5t49.5 -12.5h7v-70q-9 -2 -19 -3t-21 -1q-60 0 -89.5 32.5t-29.5 102.5v173l-57 -33l-33 55l90 53v339h89v-287l82 48l33 -55z" />
    <glyph glyph-name="Nacute" unicode="&#x143;" horiz-adv-x="705" 
d="M190 690l337 -553v553h90v-690h-102l-337 549v-549h-90v690h102zM420 888h117l-130 -128h-98z" />
    <glyph glyph-name="nacute" unicode="&#x144;" horiz-adv-x="589" 
d="M165 425q23 41 66.5 64.5t104.5 23.5q86 0 131.5 -49t45.5 -144v-320h-89v311q0 64 -26.5 94.5t-83.5 30.5q-66 0 -106.5 -44t-40.5 -125v-267h-89v500h46q41 0 41 -36v-39zM350 746h110l-117 -159h-89z" />
    <glyph glyph-name="uni0145" unicode="&#x145;" horiz-adv-x="705" 
d="M190 690l337 -553v553h90v-690h-102l-337 549v-549h-90v690h102zM311 -260q11 23 17 48t6 45h-34v98h95v-60q0 -42 -8.5 -82.5t-22.5 -69.5z" />
    <glyph glyph-name="uni0146" unicode="&#x146;" horiz-adv-x="589" 
d="M165 425q23 41 66.5 64.5t104.5 23.5q86 0 131.5 -49t45.5 -144v-320h-89v311q0 64 -26.5 94.5t-83.5 30.5q-66 0 -106.5 -44t-40.5 -125v-267h-89v500h46q41 0 41 -36v-39zM261 -261q11 23 17 49t6 46h-35v97h92v-60q0 -42 -7.5 -82.5t-22.5 -69.5z" />
    <glyph glyph-name="Ncaron" unicode="&#x147;" horiz-adv-x="705" 
d="M190 690l337 -553v553h90v-690h-102l-337 549v-549h-90v690h102zM277 899l80 -74l82 74h92l-130 -139h-87l-131 139h94z" />
    <glyph glyph-name="ncaron" unicode="&#x148;" horiz-adv-x="589" 
d="M165 425q23 41 66.5 64.5t104.5 23.5q86 0 131.5 -49t45.5 -144v-320h-89v311q0 64 -26.5 94.5t-83.5 30.5q-66 0 -106.5 -44t-40.5 -125v-267h-89v500h46q41 0 41 -36v-39zM220 747l79 -92l80 92h90l-127 -160h-87l-127 160h92z" />
    <glyph glyph-name="napostrophe" unicode="&#x149;" horiz-adv-x="719" 
d="M295 425q23 41 66.5 64.5t104.5 23.5q86 0 131.5 -49t45.5 -144v-320h-89v311q0 64 -26.5 94.5t-83.5 30.5q-66 0 -106.5 -44t-40.5 -125v-267h-89v500h46q41 0 41 -36v-39zM65 478q13 26 20.5 54t7.5 56h-37v102h101v-61q0 -54 -9.5 -97.5t-25.5 -77.5z" />
    <glyph glyph-name="Eng" unicode="&#x14a;" horiz-adv-x="704" 
d="M620 26q0 -118 -55 -182t-169 -64q-54 0 -101.5 16t-82.5 46l40 64q30 -23 65 -35t75 -12q75 0 104.5 41t29.5 113v427q0 82 -35 131.5t-113 49.5q-45 0 -81.5 -17.5t-62 -49t-39 -74.5t-13.5 -94v-386h-94v690h54q37 0 37 -33v-86q14 27 34 51.5t47 42.5t61.5 29
t77.5 11q101 0 161 -62t60 -177v-440z" />
    <glyph glyph-name="eng" unicode="&#x14b;" horiz-adv-x="589" 
d="M424 311q0 64 -26.5 94.5t-83.5 30.5q-66 0 -106.5 -44t-40.5 -125v-267h-89v500h46q41 0 41 -36v-39q23 41 66.5 64.5t104.5 23.5q86 0 131.5 -49t45.5 -144v-402q0 -67 -35 -101t-103 -34q-11 0 -23 1t-22 4v69h9q49 0 67 14t18 53v387z" />
    <glyph glyph-name="Omacron" unicode="&#x14c;" horiz-adv-x="762" 
d="M154 345q0 -131 60.5 -203t166.5 -72t166.5 72t60.5 203t-60.5 203t-166.5 72t-166.5 -72t-60.5 -203zM56 345q0 82 23 149t65.5 113.5t102.5 72t134 25.5t134 -25.5t102.5 -72t65.5 -113.5t23 -149q0 -83 -23 -149.5t-65.5 -113t-102.5 -72t-134 -25.5t-134 25.5
t-102.5 72t-65.5 113t-23 149.5zM217 786v68h328v-68h-328z" />
    <glyph glyph-name="omacron" unicode="&#x14d;" horiz-adv-x="590" 
d="M542 250q0 -59 -18 -107.5t-50 -83t-78 -53.5t-101 -19q-56 0 -101.5 19t-77.5 53.5t-50 83t-18 107.5t18 107.5t50 83t77.5 53.5t101.5 19q55 0 101 -19t78 -53.5t50 -83t18 -107.5zM449 250q0 89 -40 137.5t-114 48.5t-114 -48.5t-40 -137.5t40 -137.5t114 -48.5
t114 48.5t40 137.5zM131 617v67h327v-67h-327z" />
    <glyph glyph-name="Obreve" unicode="&#x14e;" horiz-adv-x="762" 
d="M154 345q0 -131 60.5 -203t166.5 -72t166.5 72t60.5 203t-60.5 203t-166.5 72t-166.5 -72t-60.5 -203zM56 345q0 82 23 149t65.5 113.5t102.5 72t134 25.5t134 -25.5t102.5 -72t65.5 -113.5t23 -149q0 -83 -23 -149.5t-65.5 -113t-102.5 -72t-134 -25.5t-134 25.5
t-102.5 72t-65.5 113t-23 149.5zM381 823q31 0 49.5 15.5t18.5 46.5v9h75v-10q0 -60 -37.5 -93.5t-105.5 -33.5t-105.5 33.5t-37.5 93.5v10h75v-9q0 -31 18.5 -46.5t49.5 -15.5z" />
    <glyph glyph-name="obreve" unicode="&#x14f;" horiz-adv-x="590" 
d="M542 250q0 -59 -18 -107.5t-50 -83t-78 -53.5t-101 -19q-56 0 -101.5 19t-77.5 53.5t-50 83t-18 107.5t18 107.5t50 83t77.5 53.5t101.5 19q55 0 101 -19t78 -53.5t50 -83t18 -107.5zM449 250q0 89 -40 137.5t-114 48.5t-114 -48.5t-40 -137.5t40 -137.5t114 -48.5
t114 48.5t40 137.5zM295 651q69 0 69 69v9h74v-10q0 -60 -38.5 -96.5t-104.5 -36.5t-104.5 36.5t-38.5 96.5v10h74v-9q0 -69 69 -69z" />
    <glyph glyph-name="Ohungarumlaut" unicode="&#x150;" horiz-adv-x="762" 
d="M154 345q0 -131 60.5 -203t166.5 -72t166.5 72t60.5 203t-60.5 203t-166.5 72t-166.5 -72t-60.5 -203zM56 345q0 82 23 149t65.5 113.5t102.5 72t134 25.5t134 -25.5t102.5 -72t65.5 -113.5t23 -149q0 -83 -23 -149.5t-65.5 -113t-102.5 -72t-134 -25.5t-134 25.5
t-102.5 72t-65.5 113t-23 149.5zM354 888h115l-130 -128h-96zM530 888h115l-130 -128h-96z" />
    <glyph glyph-name="ohungarumlaut" unicode="&#x151;" horiz-adv-x="590" 
d="M542 250q0 -59 -18 -107.5t-50 -83t-78 -53.5t-101 -19q-56 0 -101.5 19t-77.5 53.5t-50 83t-18 107.5t18 107.5t50 83t77.5 53.5t101.5 19q55 0 101 -19t78 -53.5t50 -83t18 -107.5zM449 250q0 89 -40 137.5t-114 48.5t-114 -48.5t-40 -137.5t40 -137.5t114 -48.5
t114 48.5t40 137.5zM260 746h108l-117 -159h-87zM432 746h108l-117 -159h-87z" />
    <glyph glyph-name="OE" unicode="&#x152;" horiz-adv-x="1058" 
d="M589 0v100q-37 -58 -95 -86.5t-136 -28.5q-71 0 -127 24.5t-95 71t-59.5 113.5t-20.5 151q0 86 21.5 153t61 113t95.5 70t125 24q154 0 230 -116v101h427v-79h-339v-224h283v-79h-283v-229h339v-79h-427zM369 70q56 0 97.5 20t69 56.5t41 87t13.5 112.5t-13.5 112.5
t-41 86.5t-69 55.5t-97.5 19.5q-105 0 -160 -70t-55 -205t55 -205t160 -70z" />
    <glyph glyph-name="oe" unicode="&#x153;" horiz-adv-x="933" 
d="M695 -13q-74 0 -127 27.5t-81 78.5q-26 -48 -77 -77t-117 -29q-55 0 -100 19t-77.5 53.5t-50 83t-17.5 107.5t17.5 107.5t50 83t77.5 53.5t100 19q69 0 119.5 -29.5t73.5 -78.5q23 48 75.5 78t118.5 30q51 0 89.5 -16.5t65 -46.5t39.5 -71.5t13 -90.5q0 -31 -5 -59h-352
q5 -81 49 -123t124 -42q77 0 128 40l38 -59q-67 -58 -174 -58zM449 250q0 89 -40 137.5t-114 48.5t-114 -48.5t-40 -137.5t40 -137.5t114 -48.5t114 48.5t40 137.5zM682 439q-61 0 -101.5 -38t-48.5 -104h271v8q0 64 -31.5 99t-89.5 35z" />
    <glyph glyph-name="Racute" unicode="&#x154;" horiz-adv-x="613" 
d="M551 493q0 -39 -12 -72t-34.5 -58.5t-53.5 -42t-68 -22.5l216 -298h-113l-173 253q-13 19 -25 25.5t-35 6.5h-75v-285h-90v690h225q112 0 175 -50.5t63 -146.5zM457 490q0 63 -36 92t-113 29h-130v-249h127q71 0 111.5 31t40.5 97zM358 888h117l-130 -128h-98z" />
    <glyph glyph-name="racute" unicode="&#x155;" horiz-adv-x="372" 
d="M78 500h46q41 0 41 -36v-48q21 44 61 67.5t94 23.5q15 0 26 -1.5t18 -3.5v-74h-33q-83 0 -123.5 -44t-40.5 -143v-241h-89v500zM273 746h110l-117 -159h-89z" />
    <glyph glyph-name="uni0156" unicode="&#x156;" horiz-adv-x="613" 
d="M551 493q0 -39 -12 -72t-34.5 -58.5t-53.5 -42t-68 -22.5l216 -298h-113l-173 253q-13 19 -25 25.5t-35 6.5h-75v-285h-90v690h225q112 0 175 -50.5t63 -146.5zM457 490q0 63 -36 92t-113 29h-130v-249h127q71 0 111.5 31t40.5 97zM293 -260q11 23 17 48t6 45h-34v98h95
v-60q0 -42 -8.5 -82.5t-22.5 -69.5z" />
    <glyph glyph-name="uni0157" unicode="&#x157;" horiz-adv-x="372" 
d="M78 500h46q41 0 41 -36v-48q21 44 61 67.5t94 23.5q15 0 26 -1.5t18 -3.5v-74h-33q-83 0 -123.5 -44t-40.5 -143v-241h-89v500zM89 -261q11 23 17 49t6 46h-35v97h92v-60q0 -42 -7.5 -82.5t-22.5 -69.5z" />
    <glyph glyph-name="Rcaron" unicode="&#x158;" horiz-adv-x="613" 
d="M551 493q0 -39 -12 -72t-34.5 -58.5t-53.5 -42t-68 -22.5l216 -298h-113l-173 253q-13 19 -25 25.5t-35 6.5h-75v-285h-90v690h225q112 0 175 -50.5t63 -146.5zM457 490q0 63 -36 92t-113 29h-130v-249h127q71 0 111.5 31t40.5 97zM215 899l80 -74l82 74h92l-130 -139
h-87l-131 139h94z" />
    <glyph glyph-name="rcaron" unicode="&#x159;" horiz-adv-x="372" 
d="M78 500h46q41 0 41 -36v-48q21 44 61 67.5t94 23.5q15 0 26 -1.5t18 -3.5v-74h-33q-83 0 -123.5 -44t-40.5 -143v-241h-89v500zM143 747l79 -92l80 92h90l-127 -160h-87l-127 160h92z" />
    <glyph glyph-name="Sacute" unicode="&#x15a;" horiz-adv-x="595" 
d="M311 623q-69 0 -113 -26t-44 -85q0 -35 21 -61.5t78 -42.5l127 -36q36 -10 66 -24.5t51.5 -36t33.5 -50.5t12 -68q0 -46 -17 -84t-49 -65.5t-79.5 -43t-108.5 -15.5q-72 0 -137.5 22t-113.5 64l46 67q45 -35 94 -53t106 -18q76 0 120 30t44 90q0 45 -26 68t-76 37
l-130 35q-78 21 -118 65.5t-40 113.5q0 47 18 84t50.5 62.5t77.5 39t99 13.5q60 0 119 -16.5t104 -50.5l-40 -66q-74 51 -175 51zM366 888h117l-130 -128h-98z" />
    <glyph glyph-name="sacute" unicode="&#x15b;" horiz-adv-x="466" 
d="M238 439q-41 0 -69 -16t-28 -53q0 -17 11.5 -34.5t51.5 -29.5l92 -28q66 -20 96 -52.5t30 -83.5q0 -69 -49.5 -112t-142.5 -43q-60 0 -108.5 17.5t-85.5 49.5l41 62q32 -25 70.5 -39.5t83.5 -14.5q46 0 74.5 19t28.5 59q0 25 -14.5 40t-49.5 26l-95 28q-62 18 -92 51
t-30 84q0 36 14 63t39 45t58.5 27t72.5 9q47 0 93.5 -12.5t79.5 -38.5l-33 -62q-28 17 -62.5 28t-76.5 11zM287 746h110l-117 -159h-89z" />
    <glyph glyph-name="Scircumflex" unicode="&#x15c;" horiz-adv-x="595" 
d="M311 623q-69 0 -113 -26t-44 -85q0 -35 21 -61.5t78 -42.5l127 -36q36 -10 66 -24.5t51.5 -36t33.5 -50.5t12 -68q0 -46 -17 -84t-49 -65.5t-79.5 -43t-108.5 -15.5q-72 0 -137.5 22t-113.5 64l46 67q45 -35 94 -53t106 -18q76 0 120 30t44 90q0 45 -26 68t-76 37
l-130 35q-78 21 -118 65.5t-40 113.5q0 47 18 84t50.5 62.5t77.5 39t99 13.5q60 0 119 -16.5t104 -50.5l-40 -66q-74 51 -175 51zM303 833l-82 -73h-92l130 139h87l131 -139h-94z" />
    <glyph glyph-name="scircumflex" unicode="&#x15d;" horiz-adv-x="466" 
d="M238 439q-41 0 -69 -16t-28 -53q0 -17 11.5 -34.5t51.5 -29.5l92 -28q66 -20 96 -52.5t30 -83.5q0 -69 -49.5 -112t-142.5 -43q-60 0 -108.5 17.5t-85.5 49.5l41 62q32 -25 70.5 -39.5t83.5 -14.5q46 0 74.5 19t28.5 59q0 25 -14.5 40t-49.5 26l-95 28q-62 18 -92 51
t-30 84q0 36 14 63t39 45t58.5 27t72.5 9q47 0 93.5 -12.5t79.5 -38.5l-33 -62q-28 17 -62.5 28t-76.5 11zM236 678l-81 -91h-90l127 160h87l127 -160h-92z" />
    <glyph glyph-name="Scedilla" unicode="&#x15e;" horiz-adv-x="595" 
d="M311 623q-69 0 -113 -26t-44 -85q0 -35 21 -61.5t78 -42.5l127 -36q36 -10 66 -24.5t51.5 -36t33.5 -50.5t12 -68q0 -42 -14.5 -78t-42 -63t-68.5 -44t-94 -21l-12 -42q44 -2 69 -22.5t25 -55.5q0 -41 -34.5 -66.5t-90.5 -25.5q-20 0 -42.5 3.5t-39.5 10.5l16 55
q15 -5 31 -7.5t32 -2.5q23 0 37.5 7t14.5 24q0 19 -17.5 26t-50.5 7h-29l23 89q-63 5 -119.5 25.5t-98.5 58.5l46 67q45 -35 94 -53t106 -18q76 0 120 30t44 90q0 45 -26 68t-76 37l-130 35q-78 21 -118 65.5t-40 113.5q0 47 18 84t50.5 62.5t77.5 39t99 13.5
q60 0 119 -16.5t104 -50.5l-40 -66q-74 51 -175 51z" />
    <glyph glyph-name="scedilla" unicode="&#x15f;" horiz-adv-x="466" 
d="M238 439q-41 0 -69 -16t-28 -53q0 -17 11.5 -34.5t51.5 -29.5l92 -28q66 -20 96 -52.5t30 -83.5q0 -63 -41.5 -104t-119.5 -49l-12 -44q45 -2 70.5 -22t25.5 -56q0 -41 -34.5 -66.5t-90.5 -25.5q-20 0 -42.5 3.5t-39.5 10.5l16 53q15 -5 31 -7.5t32 -2.5q23 0 38.5 7
t15.5 26q0 20 -18.5 27.5t-51.5 7.5h-29l24 89q-96 9 -160 65l41 62q32 -25 70.5 -39.5t83.5 -14.5q46 0 74.5 19t28.5 59q0 25 -14.5 40t-49.5 26l-95 28q-62 18 -92 51t-30 84q0 36 14 63t39 45t58.5 27t72.5 9q47 0 93.5 -12.5t79.5 -38.5l-33 -62q-28 17 -62.5 28
t-76.5 11z" />
    <glyph glyph-name="Scaron" unicode="&#x160;" horiz-adv-x="595" 
d="M311 623q-69 0 -113 -26t-44 -85q0 -35 21 -61.5t78 -42.5l127 -36q36 -10 66 -24.5t51.5 -36t33.5 -50.5t12 -68q0 -46 -17 -84t-49 -65.5t-79.5 -43t-108.5 -15.5q-72 0 -137.5 22t-113.5 64l46 67q45 -35 94 -53t106 -18q76 0 120 30t44 90q0 45 -26 68t-76 37
l-130 35q-78 21 -118 65.5t-40 113.5q0 47 18 84t50.5 62.5t77.5 39t99 13.5q60 0 119 -16.5t104 -50.5l-40 -66q-74 51 -175 51zM223 899l80 -74l82 74h92l-130 -139h-87l-131 139h94z" />
    <glyph glyph-name="scaron" unicode="&#x161;" horiz-adv-x="466" 
d="M238 439q-41 0 -69 -16t-28 -53q0 -17 11.5 -34.5t51.5 -29.5l92 -28q66 -20 96 -52.5t30 -83.5q0 -69 -49.5 -112t-142.5 -43q-60 0 -108.5 17.5t-85.5 49.5l41 62q32 -25 70.5 -39.5t83.5 -14.5q46 0 74.5 19t28.5 59q0 25 -14.5 40t-49.5 26l-95 28q-62 18 -92 51
t-30 84q0 36 14 63t39 45t58.5 27t72.5 9q47 0 93.5 -12.5t79.5 -38.5l-33 -62q-28 17 -62.5 28t-76.5 11zM157 747l79 -92l80 92h90l-127 -160h-87l-127 160h92z" />
    <glyph glyph-name="uni0162" unicode="&#x162;" horiz-adv-x="606" 
d="M351 611v-611h-13l-13 -55q44 -2 67.5 -22.5t23.5 -55.5q0 -41 -34.5 -66.5t-90.5 -25.5q-20 0 -42.5 3.5t-39.5 10.5l16 55q15 -5 31 -7.5t32 -2.5q23 0 37.5 7t14.5 24q0 19 -17.5 26t-50.5 7h-29l27 102h-13v611h-237v79h566v-79h-235z" />
    <glyph glyph-name="uni0163" unicode="&#x163;" horiz-adv-x="349" 
d="M321 1q-13 -2 -26 -3.5t-29 -1.5q-4 0 -7.5 0.5t-6.5 0.5l-15 -52q45 -2 70.5 -22t25.5 -56q0 -41 -34.5 -66.5t-90.5 -25.5q-20 0 -42.5 3.5t-39.5 10.5l16 53q15 -5 31 -7.5t32 -2.5q23 0 38.5 7t15.5 26q0 20 -18.5 27.5t-51.5 7.5h-29l29 107q-43 16 -62.5 55
t-19.5 106v260h-85v72h85v126h89v-126h125v-72h-125v-270q0 -51 22.5 -69.5t77.5 -18.5h25v-69z" />
    <glyph glyph-name="Tcaron" unicode="&#x164;" horiz-adv-x="606" 
d="M351 611v-611h-94v611h-237v79h566v-79h-235zM224 899l80 -74l82 74h92l-130 -139h-87l-131 139h94z" />
    <glyph glyph-name="tcaron" unicode="&#x165;" horiz-adv-x="349" 
d="M321 1q-13 -2 -26 -3.5t-29 -1.5q-84 0 -121.5 40t-37.5 132v260h-85v72h85v126h89v-126h125v-72h-125v-270q0 -51 22.5 -69.5t77.5 -18.5h25v-69zM248 722h81l-22 -179h-59v179z" />
    <glyph glyph-name="Tbar" unicode="&#x166;" horiz-adv-x="606" 
d="M351 611v-236h146v-68h-146v-307h-94v307h-146v68h146v236h-237v79h566v-79h-235z" />
    <glyph glyph-name="tbar" unicode="&#x167;" horiz-adv-x="349" 
d="M196 234v-76q0 -51 22.5 -69.5t77.5 -18.5h25v-69q-13 -2 -26 -3.5t-29 -1.5q-84 0 -121.5 40t-37.5 132v66h-85v64h85v130h-85v72h85v126h89v-126h125v-72h-125v-130h125v-64h-125z" />
    <glyph glyph-name="Utilde" unicode="&#x168;" horiz-adv-x="706" 
d="M353 -15q-132 0 -200.5 74t-68.5 215v416h94v-420q0 -101 42 -150.5t133 -49.5t133 49.5t42 150.5v420h94v-416q0 -141 -68.5 -215t-200.5 -74zM343 784q-17 11 -28 17t-23 6q-14 0 -23 -8.5t-9 -29.5v-9h-78v10q0 52 24.5 81t75.5 29q24 0 42 -7t41 -22q15 -10 26 -16.5
t25 -6.5t22.5 8.5t8.5 29.5v9h78v-10q0 -52 -25.5 -81t-76.5 -29q-24 0 -40.5 7t-39.5 22z" />
    <glyph glyph-name="utilde" unicode="&#x169;" horiz-adv-x="577" 
d="M499 0h-45q-41 0 -41 36v40q-18 -35 -57 -62t-103 -27q-85 0 -132 52t-47 147v314h89v-307q0 -65 25.5 -97t79.5 -32q66 0 104 46t38 128v262h89v-500zM276 623q-17 12 -27.5 17.5t-21.5 5.5q-35 0 -35 -40v-9h-76v10q0 52 25 81t75 29q25 0 42.5 -7t40.5 -24
q17 -12 27.5 -17.5t21.5 -5.5q35 0 35 40v9h76v-10q0 -52 -25 -81t-75 -29q-25 0 -42.5 7t-40.5 24z" />
    <glyph glyph-name="Umacron" unicode="&#x16a;" horiz-adv-x="706" 
d="M353 -15q-132 0 -200.5 74t-68.5 215v416h94v-420q0 -101 42 -150.5t133 -49.5t133 49.5t42 150.5v420h94v-416q0 -141 -68.5 -215t-200.5 -74zM189 786v68h328v-68h-328z" />
    <glyph glyph-name="umacron" unicode="&#x16b;" horiz-adv-x="577" 
d="M499 0h-45q-41 0 -41 36v40q-18 -35 -57 -62t-103 -27q-85 0 -132 52t-47 147v314h89v-307q0 -65 25.5 -97t79.5 -32q66 0 104 46t38 128v262h89v-500zM123 617v67h327v-67h-327z" />
    <glyph glyph-name="Ubreve" unicode="&#x16c;" horiz-adv-x="706" 
d="M353 -15q-132 0 -200.5 74t-68.5 215v416h94v-420q0 -101 42 -150.5t133 -49.5t133 49.5t42 150.5v420h94v-416q0 -141 -68.5 -215t-200.5 -74zM353 823q31 0 49.5 15.5t18.5 46.5v9h75v-10q0 -60 -37.5 -93.5t-105.5 -33.5t-105.5 33.5t-37.5 93.5v10h75v-9
q0 -31 18.5 -46.5t49.5 -15.5z" />
    <glyph glyph-name="ubreve" unicode="&#x16d;" horiz-adv-x="577" 
d="M499 0h-45q-41 0 -41 36v40q-18 -35 -57 -62t-103 -27q-85 0 -132 52t-47 147v314h89v-307q0 -65 25.5 -97t79.5 -32q66 0 104 46t38 128v262h89v-500zM287 651q69 0 69 69v9h74v-10q0 -60 -38.5 -96.5t-104.5 -36.5t-104.5 36.5t-38.5 96.5v10h74v-9q0 -69 69 -69z" />
    <glyph glyph-name="Uring" unicode="&#x16e;" horiz-adv-x="706" 
d="M353 -15q-132 0 -200.5 74t-68.5 215v416h94v-420q0 -101 42 -150.5t133 -49.5t133 49.5t42 150.5v420h94v-416q0 -141 -68.5 -215t-200.5 -74zM402 851q0 25 -14.5 37.5t-36.5 12.5q-23 0 -37.5 -12.5t-14.5 -37.5t14.5 -37.5t37.5 -12.5q22 0 36.5 12.5t14.5 37.5z
M240 851q0 47 31.5 73t79.5 26t79 -26t31 -73t-31 -72.5t-79 -25.5t-79.5 25.5t-31.5 72.5z" />
    <glyph glyph-name="uring" unicode="&#x16f;" horiz-adv-x="577" 
d="M499 0h-45q-41 0 -41 36v40q-18 -35 -57 -62t-103 -27q-85 0 -132 52t-47 147v314h89v-307q0 -65 25.5 -97t79.5 -32q66 0 104 46t38 128v262h89v-500zM343 678q0 28 -16 43t-41 15t-41 -15t-16 -43t16 -43t41 -15t41 15t16 43zM166 678q0 52 33.5 81t86.5 29t86.5 -29
t33.5 -81t-33.5 -81t-86.5 -29t-86.5 29t-33.5 81z" />
    <glyph glyph-name="Uhungarumlaut" unicode="&#x170;" horiz-adv-x="706" 
d="M353 -15q-132 0 -200.5 74t-68.5 215v416h94v-420q0 -101 42 -150.5t133 -49.5t133 49.5t42 150.5v420h94v-416q0 -141 -68.5 -215t-200.5 -74zM326 888h115l-130 -128h-96zM502 888h115l-130 -128h-96z" />
    <glyph glyph-name="uhungarumlaut" unicode="&#x171;" horiz-adv-x="577" 
d="M499 0h-45q-41 0 -41 36v40q-18 -35 -57 -62t-103 -27q-85 0 -132 52t-47 147v314h89v-307q0 -65 25.5 -97t79.5 -32q66 0 104 46t38 128v262h89v-500zM252 746h108l-117 -159h-87zM424 746h108l-117 -159h-87z" />
    <glyph glyph-name="Uogonek" unicode="&#x172;" horiz-adv-x="706" 
d="M353 -15q-125 0 -197 71t-72 218v416h94v-420q0 -101 42 -150.5t133 -49.5t133 49.5t42 150.5v420h94v-416q0 -94 -32 -160t-101 -101q-46 -23 -73.5 -58t-27.5 -73q0 -46 51 -46q26 0 48 8l12 -58q-14 -5 -32.5 -8t-40.5 -3q-62 0 -89 26t-27 67q0 65 60 117h-17z" />
    <glyph glyph-name="uogonek" unicode="&#x173;" horiz-adv-x="577" 
d="M499 500v-500q-38 -24 -64 -53t-26 -67q0 -48 55 -48q26 0 48 8l12 -54q-14 -5 -32 -8t-41 -3q-62 0 -89 26t-27 67q0 42 25 76t72 60q-19 7 -19 32v40q-18 -35 -57 -62t-103 -27q-85 0 -132 52t-47 147v314h89v-307q0 -65 25.5 -97t79.5 -32q66 0 104 46t38 128v262h89z
" />
    <glyph glyph-name="Wcircumflex" unicode="&#x174;" horiz-adv-x="951" 
d="M471 525l-150 -525h-101l-202 690h100l156 -585l151 537h99l157 -543l156 591h96l-204 -690h-100zM475 833l-82 -73h-92l130 139h87l131 -139h-94z" />
    <glyph glyph-name="wcircumflex" unicode="&#x175;" horiz-adv-x="740" 
d="M532 92l106 408h90l-155 -500h-87l-116 357l-116 -357h-87l-155 500h94l108 -404l117 365h87zM374 678l-81 -91h-90l127 160h87l127 -160h-92z" />
    <glyph glyph-name="Ycircumflex" unicode="&#x176;" horiz-adv-x="614" 
d="M353 266v-266h-94v266l-243 424h103l190 -342l189 342h100zM309 833l-82 -73h-92l130 139h87l131 -139h-94z" />
    <glyph glyph-name="ycircumflex" unicode="&#x177;" horiz-adv-x="508" 
d="M104 500l151 -407l153 407h90l-227 -570q-14 -34 -27 -61.5t-31 -46.5t-43.5 -29t-62.5 -10q-17 0 -28 1.5t-19 3.5v69h26q21 0 36.5 3t27 11t20.5 22.5t18 37.5l24 64l-202 505h94zM255 678l-81 -91h-90l127 160h87l127 -160h-92z" />
    <glyph glyph-name="Ydieresis" unicode="&#x178;" horiz-adv-x="614" 
d="M353 266v-266h-94v266l-243 424h103l190 -342l189 342h100zM358 878h93v-100h-93v100zM167 878h93v-100h-93v100z" />
    <glyph glyph-name="Zacute" unicode="&#x179;" horiz-adv-x="597" 
d="M36 75l412 536h-386v79h499v-75l-410 -534h406v-81h-521v75zM366 888h117l-130 -128h-98z" />
    <glyph glyph-name="zacute" unicode="&#x17a;" horiz-adv-x="487" 
d="M140 74h311v-74h-415v74l310 354h-301v72h403v-74zM294 746h110l-117 -159h-89z" />
    <glyph glyph-name="Zdotaccent" unicode="&#x17b;" horiz-adv-x="597" 
d="M36 75l412 536h-386v79h499v-75l-410 -534h406v-81h-521v75zM256 880h95v-102h-95v102z" />
    <glyph glyph-name="zdotaccent" unicode="&#x17c;" horiz-adv-x="487" 
d="M140 74h311v-74h-415v74l310 354h-301v72h403v-74zM197 700h93v-100h-93v100z" />
    <glyph glyph-name="Zcaron" unicode="&#x17d;" horiz-adv-x="597" 
d="M36 75l412 536h-386v79h499v-75l-410 -534h406v-81h-521v75zM223 899l80 -74l82 74h92l-130 -139h-87l-131 139h94z" />
    <glyph glyph-name="zcaron" unicode="&#x17e;" horiz-adv-x="487" 
d="M140 74h311v-74h-415v74l310 354h-301v72h403v-74zM164 747l79 -92l80 92h90l-127 -160h-87l-127 160h92z" />
    <glyph glyph-name="longs" unicode="&#x17f;" horiz-adv-x="245" 
d="M78 0v553q0 81 45.5 124t126.5 43q18 0 32 -1.5t25 -3.5v-69h-15q-30 0 -53.5 -3.5t-39 -13.5t-24 -29.5t-8.5 -50.5v-549h-89z" />
    <glyph glyph-name="uni0180" unicode="&#x180;" horiz-adv-x="604" 
d="M165 36q0 -36 -41 -36h-46v574h-72v63h72v80h89v-80h173v-63h-173v-164q22 41 67.5 65.5t104.5 24.5q52 0 92.5 -17.5t68 -50t42 -78t14.5 -100.5q0 -58 -15 -107t-44 -84.5t-72 -55.5t-99 -20q-55 0 -96.5 21.5t-64.5 59.5v-32zM315 64q72 0 110 48.5t38 136.5
q0 85 -35.5 129.5t-104.5 44.5q-75 0 -116.5 -49.5t-41.5 -134.5q0 -82 39.5 -128.5t110.5 -46.5z" />
    <glyph glyph-name="uni0181" unicode="&#x181;" horiz-adv-x="751" 
d="M219 0v613q-63 0 -94 -22.5t-31 -75.5q0 -21 3.5 -39.5t9.5 -38.5l-69 -17q-10 26 -15.5 53t-5.5 54q0 81 54 122t157 41h209q113 0 173.5 -47.5t60.5 -134.5q0 -53 -23.5 -90.5t-67.5 -59.5q127 -34 127 -162q0 -94 -63 -145t-184 -51h-241zM445 79q85 0 126.5 27
t41.5 92q0 113 -136 113h-168v-232h136zM435 388q72 0 107 25.5t35 85.5q0 57 -35 84.5t-113 27.5h-120v-223h126z" />
    <glyph glyph-name="uni0186" unicode="&#x186;" horiz-adv-x="634" 
d="M78 128q39 -30 78.5 -44t91.5 -14q112 0 172.5 73.5t60.5 202.5q0 131 -60 202.5t-172 71.5q-55 0 -93.5 -13.5t-70.5 -33.5l-39 67q38 29 89.5 47t117.5 18q80 0 141 -26.5t102 -73.5t61.5 -113.5t20.5 -145.5q0 -84 -23 -150.5t-66 -113.5t-104 -72t-137 -25
q-66 0 -122.5 21.5t-92.5 55.5z" />
    <glyph glyph-name="uni0187" unicode="&#x187;" horiz-adv-x="630" 
d="M592 53q-36 -31 -89 -49.5t-122 -18.5q-83 0 -144 28.5t-101.5 77.5t-60 115t-19.5 141q0 85 23.5 151.5t67 112.5t104.5 70t136 24q35 0 64 -6t55 -17q-3 21 -3 44q0 66 40.5 100t105.5 34q24 0 45.5 -3.5t44.5 -10.5l-16 -67q-15 4 -27 6t-27 2q-45 0 -65.5 -23.5
t-20.5 -64.5q0 -25 3.5 -47t9.5 -44l-54 -39q-35 26 -70 38.5t-81 12.5q-112 0 -174.5 -71t-62.5 -203q0 -133 62.5 -204.5t169.5 -71.5q49 0 89.5 13.5t72.5 39.5z" />
    <glyph glyph-name="uni0188" unicode="&#x188;" horiz-adv-x="485" 
d="M459 36q-61 -49 -158 -49q-64 0 -111.5 20t-79 54.5t-47 82t-15.5 103.5q0 60 17.5 109.5t50.5 84t80.5 53.5t107.5 19q21 0 40 -3.5t38 -9.5q-2 19 -3 38.5t-1 36.5q0 77 40 111t114 34q28 0 53 -5v-68h-17q-59 0 -84.5 -22t-25.5 -81v-106l-44 -35q-24 17 -47.5 25
t-57.5 8q-78 0 -123 -47t-45 -138q0 -90 44.5 -138.5t123.5 -48.5q29 0 59.5 8t55.5 26z" />
    <glyph glyph-name="uni0189" unicode="&#x189;" horiz-adv-x="703" 
d="M98 322h-82v72h82v296h208q169 0 255 -87t86 -255q0 -171 -87 -259.5t-252 -88.5h-210v322zM192 394h159v-72h-159v-243h107q130 0 190 64t60 203t-60 202t-190 63h-107v-217z" />
    <glyph glyph-name="uni018A" unicode="&#x18a;" horiz-adv-x="824" 
d="M420 79q130 0 190 64t60 203t-60 202t-190 63h-107v-532h107zM219 0v613q-63 0 -94 -22.5t-31 -75.5q0 -21 3.5 -39.5t9.5 -38.5l-69 -17q-10 26 -15.5 53t-5.5 54q0 81 54 122t157 41h199q169 0 255 -87t86 -255q0 -171 -87 -259.5t-252 -88.5h-210z" />
    <glyph glyph-name="uni018E" unicode="&#x18e;" horiz-adv-x="574" 
d="M486 0h-444v79h350v229h-294v79h294v224h-350v79h444v-690z" />
    <glyph glyph-name="uni018F" unicode="&#x18f;" horiz-adv-x="709" 
d="M325 620q-109 0 -194 -55l-43 68q106 72 241 72q75 0 135 -25t102 -71.5t64.5 -112t22.5 -147.5q0 -83 -22.5 -150t-63 -114.5t-98.5 -73.5t-128 -26q-66 0 -119.5 21.5t-92 60.5t-59 94t-20.5 123q0 20 1.5 38.5t4.5 42.5h499q-4 121 -64.5 188t-165.5 67zM338 69
q91 0 147.5 57.5t67.5 159.5h-411v-8q0 -97 52.5 -153t143.5 -56z" />
    <glyph glyph-name="uni0190" unicode="&#x190;" horiz-adv-x="530" 
d="M513 44q-42 -25 -100.5 -42t-116.5 -17q-121 0 -187.5 54t-66.5 148q0 60 32.5 103t90.5 62q-47 18 -76.5 62.5t-29.5 102.5q0 43 16.5 78t47.5 59.5t74 37.5t97 13q56 0 111.5 -15t97.5 -41l-34 -65q-42 22 -83.5 30t-89.5 8q-63 0 -103 -27.5t-40 -84.5q0 -60 36 -91.5
t100 -31.5h132v-78h-139q-71 0 -108.5 -28t-37.5 -88q0 -63 44 -94t122 -31q43 0 88.5 11t87.5 34z" />
    <glyph glyph-name="uni0191" unicode="&#x191;" horiz-adv-x="544" 
d="M182 -43q0 -90 -45 -133.5t-132 -43.5q-21 0 -44.5 4t-37.5 10l17 71q11 -4 25.5 -6.5t30.5 -2.5q52 0 72 25.5t20 80.5v728h420v-79h-326v-234h276v-79h-276v-341z" />
    <glyph glyph-name="florin" unicode="&#x192;" horiz-adv-x="334" 
d="M194 428v-479q0 -81 -39.5 -124t-118.5 -43q-18 0 -32 1.5t-25 3.5v69h15q29 0 50 3.5t34.5 13.5t20 29t6.5 51v475h-85v72h85v53q0 81 45.5 124t126.5 43q18 0 32 -1.5t25 -3.5v-69h-15q-30 0 -53.5 -3.5t-39 -13.5t-24 -29.5t-8.5 -50.5v-49h135v-72h-135z" />
    <glyph glyph-name="uni0193" unicode="&#x193;" horiz-adv-x="682" 
d="M614 29q-18 -11 -42.5 -19t-53 -13.5t-59 -8.5t-58.5 -3q-78 0 -141.5 23t-109 68.5t-70 113.5t-24.5 157q0 86 24.5 152.5t69.5 112.5t108.5 69.5t141.5 23.5q35 0 66 -7t59 -19q-2 11 -3 23t-1 24q0 66 40.5 100t105.5 34q24 0 45.5 -3.5t44.5 -10.5l-16 -67
q-15 4 -27 6t-27 2q-45 0 -65.5 -23.5t-20.5 -64.5q0 -25 3.5 -47t9.5 -44l-54 -39q-35 29 -72 40t-83 11q-122 0 -186.5 -70t-64.5 -206q0 -274 262 -274q65 0 109 14v190h-159v76h248v-321z" />
    <glyph glyph-name="uni0194" unicode="&#x194;" horiz-adv-x="614" 
d="M396 259q30 -42 43.5 -72.5t13.5 -64.5q0 -31 -11.5 -56t-31.5 -43t-47.5 -27.5t-60.5 -9.5q-30 0 -55 9t-43.5 25.5t-29 40.5t-10.5 53q0 38 15 71t40 68l40 57l-243 380h103l191 -313l188 313h100l-242 -377zM292 224q-21 -29 -32.5 -53t-11.5 -52q0 -29 17 -46t45 -17
q27 0 42.5 17t15.5 46q0 25 -13 52t-34 55l-14 19z" />
    <glyph glyph-name="uni0196" unicode="&#x196;" horiz-adv-x="286" 
d="M272 -1q-11 -2 -26 -3t-29 -1q-131 0 -131 138v557h94v-549q0 -40 17 -55t56 -15h19v-72z" />
    <glyph glyph-name="uni0197" unicode="&#x197;" horiz-adv-x="316" 
d="M205 0h-94v322h-104v70h104v298h94v-298h104v-70h-104v-322z" />
    <glyph glyph-name="uni0198" unicode="&#x198;" horiz-adv-x="670" 
d="M623 0h-122l-228 276q-17 21 -32.5 31.5t-41.5 10.5h-17v-318h-94v690h94v-298h17q22 0 37.5 7t30.5 27l116 159q18 25 35.5 46t37 37t43.5 25t55 9q51 0 81 -29.5t30 -76.5q0 -19 -2.5 -36.5t-5.5 -31.5l-70 12q4 17 4 38t-10.5 35t-33.5 14q-20 0 -33.5 -11t-28.5 -31
l-170 -223z" />
    <glyph glyph-name="uni0199" unicode="&#x199;" horiz-adv-x="526" 
d="M522 0h-114l-164 206q-14 18 -27 26t-34 8h-16v-240h-89v521q0 100 49.5 149.5t143.5 49.5q31 0 57.5 -4t55.5 -12l-15 -70q-21 5 -41 8.5t-45 3.5q-60 0 -88 -33t-28 -104v-199h15q20 0 32 6t27 22l149 162h106l-207 -220z" />
    <glyph glyph-name="uni019A" unicode="&#x19a;" horiz-adv-x="288" 
d="M238 -1q-9 -2 -19 -3t-21 -1q-60 0 -89.5 32.5t-29.5 102.5v235h-72v63h72v289h89v-289h94v-63h-94v-229q0 -42 13.5 -54.5t49.5 -12.5h7v-70z" />
    <glyph glyph-name="uni019B" unicode="&#x19b;" horiz-adv-x="507" 
d="M497 0h-94l-148 407l-153 -407h-92l204 494l-23 55l-108 -67l-29 46l113 71q-14 24 -36 35.5t-63 11.5h-31v69q11 2 24 3.5t29 1.5q56 0 88 -22t55 -57l78 49l30 -46l-82 -52z" />
    <glyph glyph-name="uni019D" unicode="&#x19d;" horiz-adv-x="705" 
d="M617 0h-102l-337 549v-592q0 -90 -44 -133.5t-129 -43.5q-21 0 -44.5 4t-37.5 10l17 71q11 -4 25.5 -6.5t30.5 -2.5q52 0 72 25.5t20 80.5v728h102l337 -553v553h90v-690z" />
    <glyph glyph-name="uni019E" unicode="&#x19e;" horiz-adv-x="589" 
d="M165 425q23 41 66.5 64.5t104.5 23.5q86 0 131.5 -49t45.5 -144v-530h-89v521q0 64 -26.5 94.5t-83.5 30.5q-66 0 -106.5 -44t-40.5 -125v-267h-89v500h46q41 0 41 -36v-39z" />
    <glyph glyph-name="uni019F" unicode="&#x19f;" horiz-adv-x="762" 
d="M381 -15q-74 0 -134 25.5t-102.5 72t-65.5 113t-23 149.5q0 82 23 149t65.5 113.5t102.5 72t134 25.5t134 -25.5t102.5 -72t65.5 -113.5t23 -149q0 -83 -23 -149.5t-65.5 -113t-102.5 -72t-134 -25.5zM151 319q7 -119 67.5 -184t162.5 -65t162.5 65t66.5 184h-459z
M609 389q-11 111 -71 171t-157 60q-98 0 -157.5 -60t-70.5 -171h456z" />
    <glyph glyph-name="Ohorn" unicode="&#x1a0;" horiz-adv-x="762" 
d="M667 828q20 -24 34 -52.5t14 -60.5q0 -46 -28.5 -72t-74.5 -32q45 -47 69.5 -114t24.5 -152q0 -83 -23 -149.5t-65.5 -113t-102.5 -72t-134 -25.5t-134 25.5t-102.5 72t-65.5 113t-23 149.5q0 82 23 149t65.5 113.5t102.5 72t134 25.5q41 0 69.5 -6.5t50 -14t39.5 -13.5
t39 -6q28 0 44 13t16 39q0 21 -8.5 40t-19.5 36zM381 70q106 0 166.5 72t60.5 203t-60.5 203t-166.5 72t-166.5 -72t-60.5 -203t60.5 -203t166.5 -72z" />
    <glyph glyph-name="ohorn" unicode="&#x1a1;" horiz-adv-x="590" 
d="M487 424q26 -34 40.5 -78t14.5 -96q0 -59 -18 -107.5t-50 -83t-78 -53.5t-101 -19q-56 0 -101.5 19t-77.5 53.5t-50 83t-18 107.5t18 107.5t50 83t77.5 53.5t101.5 19q31 0 56 -6t46 -12.5t39 -12.5t36 -6q26 0 40.5 13.5t14.5 37.5q0 16 -5.5 30.5t-12.5 25.5l57 30
q14 -19 23 -41.5t9 -50.5q0 -44 -28.5 -70.5t-81.5 -26.5h-1zM295 64q74 0 114 48.5t40 137.5t-40 137.5t-114 48.5t-114 -48.5t-40 -137.5t40 -137.5t114 -48.5z" />
    <glyph glyph-name="uni01A4" unicode="&#x1a4;" horiz-adv-x="746" 
d="M454 332q72 0 110 33.5t38 106.5t-37.5 106t-110.5 33h-141v-279h141zM313 0h-94v613q-63 0 -94 -22.5t-31 -75.5q0 -21 3.5 -39.5t9.5 -38.5l-69 -17q-10 26 -15.5 53t-5.5 54q0 81 54 122t157 41h229q115 0 177 -57t62 -161q0 -103 -62 -161t-177 -58h-144v-253z" />
    <glyph glyph-name="uni01A5" unicode="&#x1a5;" horiz-adv-x="604" 
d="M167 -210h-89v731q0 100 49.5 149.5t143.5 49.5q31 0 57.5 -4t55.5 -12l-15 -70q-21 5 -41 8.5t-45 3.5q-60 0 -88 -33t-28 -104v-82q22 38 67.5 62t107.5 24q51 0 90.5 -18t67 -51.5t42 -80t14.5 -103.5q0 -59 -15 -109t-44 -86.5t-72 -57t-99 -20.5q-54 0 -95 21.5
t-64 59.5v-278zM315 64q72 0 110 50t38 141q0 88 -35.5 134.5t-104.5 46.5q-75 0 -116.5 -51.5t-41.5 -139.5q0 -85 39.5 -133t110.5 -48z" />
    <glyph glyph-name="uni01A9" unicode="&#x1a9;" horiz-adv-x="587" 
d="M50 690h490v-79h-382l255 -257l-271 -275h409v-79h-515v76l268 279l-254 259v76z" />
    <glyph glyph-name="uni01AC" unicode="&#x1ac;" horiz-adv-x="650" 
d="M395 0h-94v611h-82q-63 0 -94 -21.5t-31 -74.5q0 -21 3.5 -39.5t9.5 -38.5l-69 -17q-10 26 -15.5 53t-5.5 54q0 81 54 122t157 41h402v-79h-235v-611z" />
    <glyph glyph-name="uni01AD" unicode="&#x1ad;" horiz-adv-x="349" 
d="M321 1q-13 -2 -26 -3.5t-29 -1.5q-84 0 -121.5 40t-37.5 132v260h-85v72h85v65q0 155 163 155q25 0 53 -5v-68h-20q-57 0 -82 -22t-25 -76v-49h125v-72h-125v-270q0 -51 22.5 -69.5t77.5 -18.5h25v-69z" />
    <glyph glyph-name="uni01AE" unicode="&#x1ae;" horiz-adv-x="606" 
d="M519 -209q-16 -5 -38 -8t-46 -3q-85 0 -131.5 39.5t-46.5 126.5v665h-237v79h566v-79h-235v-653q0 -54 25 -78t78 -24q17 0 31.5 1.5t23.5 3.5z" />
    <glyph glyph-name="Uhorn" unicode="&#x1af;" horiz-adv-x="705" 
d="M622 274q0 -141 -68.5 -215t-200.5 -74t-200.5 74t-68.5 215v416h94v-420q0 -101 42 -150.5t133 -49.5t133 49.5t42 150.5v420q14 0 32 -1t40 -1q29 0 45.5 13t16.5 39q0 21 -8.5 40t-19.5 36l56 35q20 -24 34 -52.5t14 -60.5q0 -49 -32.5 -75.5t-83.5 -29.5v-359z" />
    <glyph glyph-name="uhorn" unicode="&#x1b0;" horiz-adv-x="577" 
d="M499 0h-45q-41 0 -41 36v40q-18 -35 -57 -62t-103 -27q-85 0 -132 52t-47 147v314h89v-307q0 -65 25.5 -97t79.5 -32q66 0 104 46t38 128v262q17 0 37.5 -2t40.5 -2q27 0 41 13.5t14 37.5q0 16 -5.5 30.5t-12.5 25.5l57 30q14 -19 23 -41.5t9 -50.5q0 -45 -29 -71
t-86 -26v-444z" />
    <glyph glyph-name="uni01B1" unicode="&#x1b1;" horiz-adv-x="762" 
d="M717 611h-152q63 -53 99.5 -128.5t36.5 -175.5q0 -77 -23 -136.5t-65 -101t-101 -63t-131 -21.5t-131 21.5t-101 63t-65 101t-23 136.5q0 100 36.5 175.5t99.5 128.5h-152v79h261v-70q-70 -50 -108.5 -126t-38.5 -176q0 -115 55.5 -181.5t166.5 -66.5t166.5 66.5
t55.5 181.5q0 100 -38.5 176t-108.5 126v70h261v-79z" />
    <glyph glyph-name="uni01B2" unicode="&#x1b2;" horiz-adv-x="687" 
d="M178 264q0 -99 34.5 -146.5t115.5 -47.5q56 0 95 31t63.5 79.5t35.5 108.5t11 117q0 49 -8.5 88t-26.5 66.5t-46 42t-68 14.5h-20v75q10 2 23 3t26 1q56 0 97 -22t68 -60t40 -91t13 -114q0 -76 -19 -151.5t-58 -136t-97 -98.5t-136 -38q-118 0 -177.5 68.5t-59.5 203.5
v433h94v-426z" />
    <glyph glyph-name="uni01B3" unicode="&#x1b3;" horiz-adv-x="719" 
d="M353 0h-94v266l-243 424h103l190 -342l143 254q12 22 25.5 40.5t30 31.5t37.5 20.5t49 7.5q54 0 87 -29t33 -80q0 -17 -2.5 -35t-5.5 -30l-70 12q4 17 4 37q0 23 -13 36.5t-36 13.5q-22 0 -35 -13.5t-27 -37.5l-176 -310v-266z" />
    <glyph glyph-name="uni01B4" unicode="&#x1b4;" horiz-adv-x="628" 
d="M271 -70q-14 -34 -27 -61.5t-31 -46.5t-43.5 -29t-62.5 -10q-17 0 -28 1.5t-19 3.5v69h26q21 0 36.5 3t27 11t20.5 22.5t18 37.5l24 64l-202 505h94l151 -407l133 349q20 51 50 78t78 27q51 0 79.5 -25.5t28.5 -71.5q0 -9 -0.5 -19.5t-2.5 -19.5l-63 6v18q0 23 -10.5 34
t-28.5 11q-20 0 -31 -12.5t-19 -34.5z" />
    <glyph glyph-name="uni01B5" unicode="&#x1b5;" horiz-adv-x="613" 
d="M565 0h-521v75l193 249h-161v67h213l171 220h-390v79h499v-75l-174 -224h154v-67h-206l-188 -243h410v-81z" />
    <glyph glyph-name="uni01B6" unicode="&#x1b6;" horiz-adv-x="497" 
d="M456 0h-415v74l142 160h-115v64h172l116 130h-306v72h403v-74l-114 -128h104v-64h-161l-142 -160h316v-74z" />
    <glyph glyph-name="uni01B7" unicode="&#x1b7;" horiz-adv-x="540" 
d="M41 690h424v-74l-212 -210q118 -4 181.5 -55.5t63.5 -145.5q0 -51 -18 -92t-52 -69.5t-82 -43.5t-108 -15q-63 0 -119.5 15t-94.5 41l38 73q79 -46 176 -46q81 0 123.5 35t42.5 102q0 63 -47.5 96.5t-138.5 33.5h-71v67l210 210h-316v78z" />
    <glyph glyph-name="uni01CD" unicode="&#x1cd;" horiz-adv-x="649" 
d="M468 191h-295l-70 -191h-91l264 690h97l264 -690h-99zM201 268h239l-120 323zM244 899l80 -74l82 74h92l-130 -139h-87l-131 139h94z" />
    <glyph glyph-name="uni01CE" unicode="&#x1ce;" horiz-adv-x="519" 
d="M445 -3q-40 0 -58.5 20.5t-20.5 58.5q-21 -41 -63.5 -64t-99.5 -23q-39 0 -69.5 11.5t-51.5 32t-31.5 48.5t-10.5 60q0 42 17 72t45.5 48.5t65.5 27.5t77 9h110v30q0 52 -26 81.5t-93 29.5q-40 0 -76.5 -12t-69.5 -35l-36 60q39 30 87.5 45.5t102.5 15.5q40 0 75.5 -9
t62 -31t42 -57.5t15.5 -89.5v-223q0 -22 7.5 -30t31.5 -8h11v-62q-8 -2 -20 -4t-24 -2zM247 233q-59 0 -90 -21.5t-31 -66.5q0 -38 23 -60t71 -22q33 0 58 11t42.5 30t26 45.5t8.5 56.5v27h-108zM164 747l79 -92l80 92h90l-127 -160h-87l-127 160h92z" />
    <glyph glyph-name="uni01CF" unicode="&#x1cf;" horiz-adv-x="270" 
d="M182 0h-94v690h94v-690zM55 899l80 -74l82 74h92l-130 -139h-87l-131 139h94z" />
    <glyph glyph-name="uni01D0" unicode="&#x1d0;" horiz-adv-x="245" 
d="M167 0h-89v500h89v-500zM43 747l79 -92l80 92h90l-127 -160h-87l-127 160h92z" />
    <glyph glyph-name="uni01D1" unicode="&#x1d1;" horiz-adv-x="762" 
d="M154 345q0 -131 60.5 -203t166.5 -72t166.5 72t60.5 203t-60.5 203t-166.5 72t-166.5 -72t-60.5 -203zM56 345q0 82 23 149t65.5 113.5t102.5 72t134 25.5t134 -25.5t102.5 -72t65.5 -113.5t23 -149q0 -83 -23 -149.5t-65.5 -113t-102.5 -72t-134 -25.5t-134 25.5
t-102.5 72t-65.5 113t-23 149.5zM301 899l80 -74l82 74h92l-130 -139h-87l-131 139h94z" />
    <glyph glyph-name="uni01D2" unicode="&#x1d2;" horiz-adv-x="590" 
d="M542 250q0 -59 -18 -107.5t-50 -83t-78 -53.5t-101 -19q-56 0 -101.5 19t-77.5 53.5t-50 83t-18 107.5t18 107.5t50 83t77.5 53.5t101.5 19q55 0 101 -19t78 -53.5t50 -83t18 -107.5zM449 250q0 89 -40 137.5t-114 48.5t-114 -48.5t-40 -137.5t40 -137.5t114 -48.5
t114 48.5t40 137.5zM216 747l79 -92l80 92h90l-127 -160h-87l-127 160h92z" />
    <glyph glyph-name="uni01D3" unicode="&#x1d3;" horiz-adv-x="706" 
d="M353 -15q-132 0 -200.5 74t-68.5 215v416h94v-420q0 -101 42 -150.5t133 -49.5t133 49.5t42 150.5v420h94v-416q0 -141 -68.5 -215t-200.5 -74zM273 899l80 -74l82 74h92l-130 -139h-87l-131 139h94z" />
    <glyph glyph-name="uni01D4" unicode="&#x1d4;" horiz-adv-x="577" 
d="M499 0h-45q-41 0 -41 36v40q-18 -35 -57 -62t-103 -27q-85 0 -132 52t-47 147v314h89v-307q0 -65 25.5 -97t79.5 -32q66 0 104 46t38 128v262h89v-500zM208 747l79 -92l80 92h90l-127 -160h-87l-127 160h92z" />
    <glyph glyph-name="uni01D5" unicode="&#x1d5;" horiz-adv-x="705" 
d="M353 -15q-132 0 -200.5 74t-68.5 215v416h94v-420q0 -101 42 -150.5t133 -49.5t133 49.5t42 150.5v420h94v-416q0 -141 -68.5 -215t-200.5 -74zM297 774h-87v87h87v-87zM496 774h-87v87h87v-87zM510 940h-313v62h313v-62z" />
    <glyph glyph-name="uni01D6" unicode="&#x1d6;" horiz-adv-x="577" 
d="M499 0h-45q-41 0 -41 36v40q-18 -35 -57 -62t-103 -27q-85 0 -132 52t-47 147v314h89v-307q0 -65 25.5 -97t79.5 -32q66 0 104 46t38 128v262h89v-500zM432 606h-89v87h89v-87zM232 606h-89v87h89v-87zM451 768h-328v60h328v-60z" />
    <glyph glyph-name="uni01D7" unicode="&#x1d7;" horiz-adv-x="705" 
d="M353 -15q-132 0 -200.5 74t-68.5 215v416h94v-420q0 -101 42 -150.5t133 -49.5t133 49.5t42 150.5v420h94v-416q0 -141 -68.5 -215t-200.5 -74zM297 774h-87v87h87v-87zM496 774h-87v87h87v-87zM527 1040l-133 -121h-86l114 121h105z" />
    <glyph glyph-name="uni01D8" unicode="&#x1d8;" horiz-adv-x="577" 
d="M499 0h-45q-41 0 -41 36v40q-18 -35 -57 -62t-103 -27q-85 0 -132 52t-47 147v314h89v-307q0 -65 25.5 -97t79.5 -32q66 0 104 46t38 128v262h89v-500zM432 606h-89v87h89v-87zM232 606h-89v87h89v-87zM326 745h-80l90 147h100z" />
    <glyph glyph-name="uni01D9" unicode="&#x1d9;" horiz-adv-x="705" 
d="M353 -15q-132 0 -200.5 74t-68.5 215v416h94v-420q0 -101 42 -150.5t133 -49.5t133 49.5t42 150.5v420h94v-416q0 -141 -68.5 -215t-200.5 -74zM297 774h-87v87h87v-87zM496 774h-87v87h87v-87zM526 1040l-130 -121h-87l-129 121h88l85 -68l88 68h85z" />
    <glyph glyph-name="uni01DA" unicode="&#x1da;" horiz-adv-x="577" 
d="M499 0h-45q-41 0 -41 36v40q-18 -35 -57 -62t-103 -27q-85 0 -132 52t-47 147v314h89v-307q0 -65 25.5 -97t79.5 -32q66 0 104 46t38 128v262h89v-500zM432 606h-89v87h89v-87zM232 606h-89v87h89v-87zM328 745h-83l-122 147h83l81 -88l82 88h81z" />
    <glyph glyph-name="uni01DB" unicode="&#x1db;" horiz-adv-x="705" 
d="M353 -15q-132 0 -200.5 74t-68.5 215v416h94v-420q0 -101 42 -150.5t133 -49.5t133 49.5t42 150.5v420h94v-416q0 -141 -68.5 -215t-200.5 -74zM297 774h-87v87h87v-87zM496 774h-87v87h87v-87zM397 919h-87l-133 121h105z" />
    <glyph glyph-name="uni01DC" unicode="&#x1dc;" horiz-adv-x="575" 
d="M499 0h-45q-41 0 -41 36v40q-18 -35 -57 -62t-103 -27q-85 0 -132 52t-47 147v314h89v-307q0 -65 25.5 -97t79.5 -32q66 0 104 46t38 128v262h89v-500zM432 606h-89v87h89v-87zM232 606h-89v87h89v-87zM328 745h-80l-110 147h100z" />
    <glyph glyph-name="uni01DD" unicode="&#x1dd;" horiz-adv-x="539" 
d="M242 436q-82 0 -140 -37l-38 59q73 55 178 55q117 0 183 -71t66 -197q0 -58 -16.5 -105.5t-47 -81.5t-73.5 -52.5t-95 -18.5q-99 0 -156 60t-57 165q0 31 5 59h351q-4 78 -45.5 121.5t-114.5 43.5zM130 203v-8q0 -63 34.5 -98.5t94.5 -35.5q59 0 96 38t45 104h-270z" />
    <glyph glyph-name="uni01DE" unicode="&#x1de;" horiz-adv-x="649" 
d="M468 191h-295l-70 -191h-91l264 690h97l264 -690h-99zM201 268h239l-120 323zM268 774h-87v87h87v-87zM467 774h-87v87h87v-87zM481 940h-313v62h313v-62z" />
    <glyph glyph-name="uni01DF" unicode="&#x1df;" horiz-adv-x="518" 
d="M445 -3q-40 0 -58.5 20.5t-20.5 58.5q-21 -41 -63.5 -64t-99.5 -23q-39 0 -69.5 11.5t-51.5 32t-31.5 48.5t-10.5 60q0 42 17 72t45.5 48.5t65.5 27.5t77 9h110v30q0 52 -26 81.5t-93 29.5q-40 0 -76.5 -12t-69.5 -35l-36 60q39 30 87.5 45.5t102.5 15.5q40 0 75.5 -9
t62 -31t42 -57.5t15.5 -89.5v-223q0 -22 7.5 -30t31.5 -8h11v-62q-8 -2 -20 -4t-24 -2zM247 233q-59 0 -90 -21.5t-31 -66.5q0 -38 23 -60t71 -22q33 0 58 11t42.5 30t26 45.5t8.5 56.5v27h-108zM388 606h-89v87h89v-87zM188 606h-89v87h89v-87zM407 768h-328v60h328v-60z
" />
    <glyph glyph-name="uni01E0" unicode="&#x1e0;" horiz-adv-x="649" 
d="M468 191h-295l-70 -191h-91l264 690h97l264 -690h-99zM201 268h239l-120 323zM370 775h-91v91h91v-91zM481 940h-313v62h313v-62z" />
    <glyph glyph-name="uni01E1" unicode="&#x1e1;" horiz-adv-x="518" 
d="M445 -3q-40 0 -58.5 20.5t-20.5 58.5q-21 -41 -63.5 -64t-99.5 -23q-39 0 -69.5 11.5t-51.5 32t-31.5 48.5t-10.5 60q0 42 17 72t45.5 48.5t65.5 27.5t77 9h110v30q0 52 -26 81.5t-93 29.5q-40 0 -76.5 -12t-69.5 -35l-36 60q39 30 87.5 45.5t102.5 15.5q40 0 75.5 -9
t62 -31t42 -57.5t15.5 -89.5v-223q0 -22 7.5 -30t31.5 -8h11v-62q-8 -2 -20 -4t-24 -2zM247 233q-59 0 -90 -21.5t-31 -66.5q0 -38 23 -60t71 -22q33 0 58 11t42.5 30t26 45.5t8.5 56.5v27h-108zM291 608h-95v94h95v-94zM407 777h-328v60h328v-60z" />
    <glyph glyph-name="uni01E2" unicode="&#x1e2;" horiz-adv-x="995" 
d="M12 0l421 690h520v-79h-350v-224h294v-79h-294v-229h350v-79h-444v213h-265l-128 -213h-104zM291 290h218v324h-23zM541 786v68h328v-68h-328z" />
    <glyph glyph-name="uni01E3" unicode="&#x1e3;" horiz-adv-x="856" 
d="M251 513q66 0 110 -22t66 -60q26 37 72 59.5t104 22.5q51 0 89.5 -16.5t65 -46.5t39.5 -71.5t13 -90.5q0 -31 -5 -59h-352q5 -81 49 -123t124 -42q77 0 128 40l38 -59q-67 -58 -174 -58q-73 0 -126 26.5t-81 80.5q-27 -51 -78 -78t-123 -27q-41 0 -72.5 11.5t-53.5 32
t-33 48.5t-11 60q0 42 17.5 72t47 48.5t67.5 27.5t80 9h118v30q0 52 -28 81.5t-99 29.5q-42 0 -80 -12t-73 -35l-36 60q82 61 197 61zM254 233q-62 0 -95 -21.5t-33 -66.5q0 -38 25 -60t76 -22q34 0 61 11t45 30t27.5 45.5t9.5 56.5v27h-116zM605 439q-61 0 -101.5 -38
t-48.5 -104h271v8q0 64 -31.5 99t-89.5 35zM709 617h-563v67h563v-67z" />
    <glyph glyph-name="uni01E4" unicode="&#x1e4;" horiz-adv-x="698" 
d="M614 29q-18 -11 -42.5 -19t-53 -13.5t-59 -8.5t-58.5 -3q-78 0 -141.5 23t-109 68.5t-70 113.5t-24.5 157q0 86 24.5 152.5t69.5 112.5t108.5 69.5t141.5 23.5q62 0 115.5 -15.5t91.5 -45.5l-42 -71q-68 47 -160 47q-122 0 -186.5 -70t-64.5 -206q0 -274 262 -274
q67 0 111 14v65h-161v60h161v72h-161v74h248v-146h82v-60h-82v-120z" />
    <glyph glyph-name="uni01E5" unicode="&#x1e5;" horiz-adv-x="550" 
d="M566 -93h-60q-9 -32 -31 -56t-54.5 -40.5t-72.5 -24.5t-85 -8q-94 0 -154 33t-72 96h-55v53h55q12 69 85 89q-32 9 -48.5 31.5t-16.5 55.5q0 27 18.5 50.5t50.5 32.5q-27 20 -43.5 52t-16.5 73q0 38 15 69t42 53.5t64.5 34.5t83.5 12q32 0 61 -6t51 -16h143v-62h-81
q15 -17 24.5 -39.5t9.5 -48.5q0 -36 -14.5 -67t-41.5 -53t-65 -34.5t-84 -12.5q-25 0 -46 3t-42 11q-46 -12 -46 -52q0 -47 76 -47h105q36 0 69.5 -6.5t60 -22t43 -40t18.5 -60.5h54v-53zM393 343q0 46 -31 75t-89 29t-89.5 -29t-31.5 -75t31.5 -74.5t89.5 -28.5t89 28.5
t31 74.5zM430 -41q-6 31 -35.5 47t-79.5 16h-93q-45 0 -73.5 -16t-34.5 -47h316zM120 -92q14 -32 54.5 -48t95.5 -16q57 0 97 16.5t55 47.5h-302z" />
    <glyph glyph-name="Gcaron" unicode="&#x1e6;" horiz-adv-x="682" 
d="M416 70q65 0 109 14v190h-159v76h248v-321q-18 -11 -42.5 -19t-53 -13.5t-59 -8.5t-58.5 -3q-78 0 -141.5 23t-109 68.5t-70 113.5t-24.5 157q0 86 24.5 152.5t69.5 112.5t108.5 69.5t141.5 23.5q62 0 115.5 -15.5t91.5 -45.5l-42 -71q-68 47 -160 47q-122 0 -186.5 -70
t-64.5 -206q0 -274 262 -274zM308 899l80 -74l82 74h92l-130 -139h-87l-131 139h94z" />
    <glyph glyph-name="gcaron" unicode="&#x1e7;" horiz-adv-x="550" 
d="M34 -65q0 45 23 74t65 40q-32 9 -48.5 31.5t-16.5 55.5q0 27 18.5 50.5t50.5 32.5q-27 20 -43.5 52t-16.5 73q0 38 15 69t42 53.5t64.5 34.5t83.5 12q32 0 61 -6t51 -16h143v-62h-81q15 -17 24.5 -39.5t9.5 -48.5q0 -36 -14.5 -67t-41.5 -53t-65 -34.5t-84 -12.5
q-25 0 -46 3t-42 11q-46 -12 -46 -52q0 -23 18.5 -35.5t57.5 -12.5h105q38 0 72.5 -7t61 -23t42.5 -43t16 -66q0 -42 -19.5 -74t-53.5 -53.5t-79.5 -32.5t-97.5 -11t-94 10.5t-72 30.5t-46.5 49t-16.5 67zM222 20q-51 0 -78 -19.5t-27 -58.5q0 -50 42.5 -73t110.5 -23
q73 0 115 25t42 73q0 76 -112 76h-93zM273 240q58 0 89 28.5t31 74.5t-31 75t-89 29t-89.5 -29t-31.5 -75t31.5 -74.5t89.5 -28.5zM194 747l79 -92l80 92h90l-127 -160h-87l-127 160h92z" />
    <glyph glyph-name="uni01E8" unicode="&#x1e8;" horiz-adv-x="629" 
d="M182 0h-94v690h94v-298h17q22 0 35.5 6.5t27.5 23.5l224 268h111l-281 -328l307 -362h-122l-228 276q-17 21 -32.5 31.5t-41.5 10.5h-17v-318zM247 899l80 -74l82 74h92l-130 -139h-87l-131 139h94z" />
    <glyph glyph-name="uni01E9" unicode="&#x1e9;" horiz-adv-x="526" 
d="M289 280l233 -280h-114l-164 206q-14 18 -27 26t-34 8h-16v-240h-89v717h89v-407h15q20 0 32 6t27 22l149 162h106zM43 914l80 -74l82 74h92l-130 -139h-87l-131 139h94z" />
    <glyph glyph-name="uni01EA" unicode="&#x1ea;" horiz-adv-x="762" 
d="M530 -214q-14 -5 -32.5 -8t-40.5 -3q-62 0 -89 26t-27 67q0 66 61 118q-5 -1 -10.5 -1h-10.5q-74 0 -134 25.5t-102.5 72t-65.5 113t-23 149.5q0 82 23 149t65.5 113.5t102.5 72t134 25.5t134 -25.5t102.5 -72t65.5 -113.5t23 -149q0 -122 -44.5 -201.5t-139.5 -128.5
q-51 -26 -77 -60t-26 -73q0 -46 51 -46q26 0 48 8zM381 70q106 0 166.5 72t60.5 203t-60.5 203t-166.5 72t-166.5 -72t-60.5 -203t60.5 -203t166.5 -72z" />
    <glyph glyph-name="uni01EB" unicode="&#x1eb;" horiz-adv-x="590" 
d="M423 -214q-14 -5 -32 -8t-41 -3q-62 0 -89 26t-27 67q0 35 16.5 65t46.5 54h-2q-56 0 -101.5 19t-77.5 53.5t-50 83t-18 107.5t18 107.5t50 83t77.5 53.5t101.5 19q55 0 101 -19t78 -53.5t50 -83t18 -107.5q0 -85 -31.5 -141t-94.5 -93q-108 -62 -108 -136q0 -48 55 -48
q26 0 48 8zM295 64q74 0 114 48.5t40 137.5t-40 137.5t-114 48.5t-114 -48.5t-40 -137.5t40 -137.5t114 -48.5z" />
    <glyph glyph-name="uni01EC" unicode="&#x1ec;" horiz-adv-x="762" 
d="M530 -214q-14 -5 -32.5 -8t-40.5 -3q-62 0 -89 26t-27 67q0 66 61 118q-5 -1 -10.5 -1h-10.5q-74 0 -134 25.5t-102.5 72t-65.5 113t-23 149.5q0 82 23 149t65.5 113.5t102.5 72t134 25.5t134 -25.5t102.5 -72t65.5 -113.5t23 -149q0 -122 -44.5 -201.5t-139.5 -128.5
q-51 -26 -77 -60t-26 -73q0 -46 51 -46q26 0 48 8zM381 70q106 0 166.5 72t60.5 203t-60.5 203t-166.5 72t-166.5 -72t-60.5 -203t60.5 -203t166.5 -72zM217 786v68h328v-68h-328z" />
    <glyph glyph-name="uni01ED" unicode="&#x1ed;" horiz-adv-x="590" 
d="M423 -214q-14 -5 -32 -8t-41 -3q-62 0 -89 26t-27 67q0 35 16.5 65t46.5 54h-2q-56 0 -101.5 19t-77.5 53.5t-50 83t-18 107.5t18 107.5t50 83t77.5 53.5t101.5 19q55 0 101 -19t78 -53.5t50 -83t18 -107.5q0 -85 -31.5 -141t-94.5 -93q-108 -62 -108 -136q0 -48 55 -48
q26 0 48 8zM295 64q74 0 114 48.5t40 137.5t-40 137.5t-114 48.5t-114 -48.5t-40 -137.5t40 -137.5t114 -48.5zM131 617v67h327v-67h-327z" />
    <glyph glyph-name="uni01EE" unicode="&#x1ee;" horiz-adv-x="533" 
d="M41 690h424v-74l-212 -210q118 -4 181.5 -55.5t63.5 -145.5q0 -51 -18 -92t-52 -69.5t-82 -43.5t-108 -15q-63 0 -119.5 15t-94.5 41l38 73q79 -46 176 -46q81 0 123.5 35t42.5 102q0 63 -47.5 96.5t-138.5 33.5h-71v67l210 210h-316v78zM180 899l80 -74l82 74h92
l-130 -139h-87l-131 139h94z" />
    <glyph glyph-name="uni01EF" unicode="&#x1ef;" horiz-adv-x="493" 
d="M33 500h391v-74l-195 -220q107 -2 166.5 -55.5t59.5 -150.5q0 -50 -17 -91t-49 -70t-77.5 -45t-102.5 -16q-59 0 -109 14t-88 41l37 66q38 -23 75.5 -33.5t83.5 -10.5q75 0 115 38.5t40 106.5q0 69 -43.5 103t-123.5 34h-64v67l195 224h-294v72zM154 747l79 -92l80 92h90
l-127 -160h-87l-127 160h92z" />
    <glyph glyph-name="uni01F0" unicode="&#x1f0;" horiz-adv-x="245" 
d="M3 -143q24 0 38.5 3t23 11t11 20.5t2.5 32.5v576h89v-582q0 -67 -30 -101t-98 -34q-11 0 -23 1t-22 4v69h9zM43 747l79 -92l80 92h90l-127 -160h-87l-127 160h92z" />
    <glyph glyph-name="uni01F4" unicode="&#x1f4;" horiz-adv-x="682" 
d="M416 70q65 0 109 14v190h-159v76h248v-321q-18 -11 -42.5 -19t-53 -13.5t-59 -8.5t-58.5 -3q-78 0 -141.5 23t-109 68.5t-70 113.5t-24.5 157q0 86 24.5 152.5t69.5 112.5t108.5 69.5t141.5 23.5q62 0 115.5 -15.5t91.5 -45.5l-42 -71q-68 47 -160 47q-122 0 -186.5 -70
t-64.5 -206q0 -274 262 -274zM451 888h117l-130 -128h-98z" />
    <glyph glyph-name="uni01F5" unicode="&#x1f5;" horiz-adv-x="550" 
d="M34 -65q0 45 23 74t65 40q-32 9 -48.5 31.5t-16.5 55.5q0 27 18.5 50.5t50.5 32.5q-27 20 -43.5 52t-16.5 73q0 38 15 69t42 53.5t64.5 34.5t83.5 12q32 0 61 -6t51 -16h143v-62h-81q15 -17 24.5 -39.5t9.5 -48.5q0 -36 -14.5 -67t-41.5 -53t-65 -34.5t-84 -12.5
q-25 0 -46 3t-42 11q-46 -12 -46 -52q0 -23 18.5 -35.5t57.5 -12.5h105q38 0 72.5 -7t61 -23t42.5 -43t16 -66q0 -42 -19.5 -74t-53.5 -53.5t-79.5 -32.5t-97.5 -11t-94 10.5t-72 30.5t-46.5 49t-16.5 67zM222 20q-51 0 -78 -19.5t-27 -58.5q0 -50 42.5 -73t110.5 -23
q73 0 115 25t42 73q0 76 -112 76h-93zM273 240q58 0 89 28.5t31 74.5t-31 75t-89 29t-89.5 -29t-31.5 -75t31.5 -74.5t89.5 -28.5zM324 746h110l-117 -159h-89z" />
    <glyph glyph-name="uni01F8" unicode="&#x1f8;" horiz-adv-x="705" 
d="M190 690l337 -553v553h90v-690h-102l-337 549v-549h-90v690h102zM404 760h-98l-130 128h117z" />
    <glyph glyph-name="uni01F9" unicode="&#x1f9;" horiz-adv-x="589" 
d="M165 425q23 41 66.5 64.5t104.5 23.5q86 0 131.5 -49t45.5 -144v-320h-89v311q0 64 -26.5 94.5t-83.5 30.5q-66 0 -106.5 -44t-40.5 -125v-267h-89v500h46q41 0 41 -36v-39zM346 587h-89l-117 159h110z" />
    <glyph glyph-name="Aringacute" unicode="&#x1fa;" horiz-adv-x="649" 
d="M201 748q0 52 33.5 81t86.5 29t86.5 -29t33.5 -81q0 -34 -14.5 -57.5t-39.5 -37.5l250 -653h-99l-70 191h-295l-70 -191h-91l248 650q-27 13 -43 38t-16 60zM201 268h239l-120 323zM378 748q0 28 -16 43t-41 15t-41 -15t-16 -43q0 -26 15.5 -42t41.5 -16q25 0 41 15
t16 43zM504 1017l-133 -121h-86l114 121h105z" />
    <glyph glyph-name="aringacute" unicode="&#x1fb;" horiz-adv-x="519" 
d="M445 -3q-40 0 -58.5 20.5t-20.5 58.5q-21 -41 -63.5 -64t-99.5 -23q-39 0 -69.5 11.5t-51.5 32t-31.5 48.5t-10.5 60q0 42 17 72t45.5 48.5t65.5 27.5t77 9h110v30q0 52 -26 81.5t-93 29.5q-40 0 -76.5 -12t-69.5 -35l-36 60q39 30 87.5 45.5t102.5 15.5q40 0 75.5 -9
t62 -31t42 -57.5t15.5 -89.5v-223q0 -22 7.5 -30t31.5 -8h11v-62q-8 -2 -20 -4t-24 -2zM247 233q-59 0 -90 -21.5t-31 -66.5q0 -38 23 -60t71 -22q33 0 58 11t42.5 30t26 45.5t8.5 56.5v27h-108zM293 662q0 24 -14.5 37t-35.5 13t-35.5 -13t-14.5 -37q0 -23 14.5 -36
t35.5 -13t35.5 13t14.5 36zM349 662q0 -45 -30 -70.5t-76 -25.5t-76 25.5t-30 70.5q0 46 30 71.5t76 25.5t76 -25.5t30 -71.5zM417 933l-133 -121h-86l114 121h105z" />
    <glyph glyph-name="AEacute" unicode="&#x1fc;" horiz-adv-x="995" 
d="M12 0l421 690h520v-79h-350v-224h294v-79h-294v-229h350v-79h-444v213h-265l-128 -213h-104zM291 290h218v324h-23zM620 888h117l-130 -128h-98z" />
    <glyph glyph-name="aeacute" unicode="&#x1fd;" horiz-adv-x="856" 
d="M251 513q66 0 110 -22t66 -60q26 37 72 59.5t104 22.5q51 0 89.5 -16.5t65 -46.5t39.5 -71.5t13 -90.5q0 -31 -5 -59h-352q5 -81 49 -123t124 -42q77 0 128 40l38 -59q-67 -58 -174 -58q-73 0 -126 26.5t-81 80.5q-27 -51 -78 -78t-123 -27q-41 0 -72.5 11.5t-53.5 32
t-33 48.5t-11 60q0 42 17.5 72t47 48.5t67.5 27.5t80 9h118v30q0 52 -28 81.5t-99 29.5q-42 0 -80 -12t-73 -35l-36 60q82 61 197 61zM254 233q-62 0 -95 -21.5t-33 -66.5q0 -38 25 -60t76 -22q34 0 61 11t45 30t27.5 45.5t9.5 56.5v27h-116zM605 439q-61 0 -101.5 -38
t-48.5 -104h271v8q0 64 -31.5 99t-89.5 35zM478 746h110l-117 -159h-89z" />
    <glyph glyph-name="Oslashacute" unicode="&#x1fe;" horiz-adv-x="762" 
d="M56 345q0 82 23 149t65.5 113.5t102.5 72t134 25.5q57 0 105 -15t86 -43l63 80l57 -47l-66 -83q38 -47 59 -110.5t21 -141.5q0 -83 -23 -149.5t-65.5 -113t-102.5 -72t-134 -25.5q-112 0 -192 57l-62 -79l-57 47l65 83q-38 47 -58.5 110.5t-20.5 141.5zM154 345
q0 -108 41 -176l322 408q-55 43 -136 43q-106 0 -166.5 -72t-60.5 -203zM608 345q0 54 -11 97.5t-31 77.5l-321 -408q54 -42 136 -42q106 0 166.5 72t60.5 203zM444 888h117l-130 -128h-98z" />
    <glyph glyph-name="oslashacute" unicode="&#x1ff;" horiz-adv-x="590" 
d="M542 250q0 -59 -18 -107.5t-50 -83t-78 -53.5t-101 -19q-80 0 -138 38l-43 -54l-52 42l45 56q-29 35 -44 80.5t-15 100.5q0 59 18 107.5t50 83t77.5 53.5t101.5 19q40 0 74 -10t63 -28l44 54l52 -42l-45 -57q29 -34 44 -79.5t15 -100.5zM449 250q0 66 -23 110l-218 -272
q34 -24 87 -24q74 0 114 48.5t40 137.5zM141 250q0 -64 22 -110l219 272q-36 24 -87 24q-74 0 -114 -48.5t-40 -137.5zM288 746h110l-117 -159h-89z" />
    <glyph glyph-name="uni0200" unicode="&#x200;" horiz-adv-x="649" 
d="M468 191h-295l-70 -191h-91l264 690h97l264 -690h-99zM201 268h239l-120 323zM277 760h-93l-130 128h111zM462 760h-93l-130 128h112z" />
    <glyph glyph-name="uni0201" unicode="&#x201;" horiz-adv-x="519" 
d="M445 -3q-40 0 -58.5 20.5t-20.5 58.5q-21 -41 -63.5 -64t-99.5 -23q-39 0 -69.5 11.5t-51.5 32t-31.5 48.5t-10.5 60q0 42 17 72t45.5 48.5t65.5 27.5t77 9h110v30q0 52 -26 81.5t-93 29.5q-40 0 -76.5 -12t-69.5 -35l-36 60q39 30 87.5 45.5t102.5 15.5q40 0 75.5 -9
t62 -31t42 -57.5t15.5 -89.5v-223q0 -22 7.5 -30t31.5 -8h11v-62q-8 -2 -20 -4t-24 -2zM247 233q-59 0 -90 -21.5t-31 -66.5q0 -38 23 -60t71 -22q33 0 58 11t42.5 30t26 45.5t8.5 56.5v27h-108zM193 586h-83l-117 160h104zM370 586h-83l-117 160h104z" />
    <glyph glyph-name="uni0202" unicode="&#x202;" horiz-adv-x="649" 
d="M468 191h-295l-70 -191h-91l264 690h97l264 -690h-99zM201 268h239l-120 323zM396 758q0 35 -20 53.5t-52 18.5q-33 0 -52 -18.5t-19 -53.5h-72q0 63 37.5 98.5t104.5 35.5q69 0 106.5 -37t37.5 -97h-71z" />
    <glyph glyph-name="uni0203" unicode="&#x203;" horiz-adv-x="519" 
d="M445 -3q-40 0 -58.5 20.5t-20.5 58.5q-21 -41 -63.5 -64t-99.5 -23q-39 0 -69.5 11.5t-51.5 32t-31.5 48.5t-10.5 60q0 42 17 72t45.5 48.5t65.5 27.5t77 9h110v30q0 52 -26 81.5t-93 29.5q-40 0 -76.5 -12t-69.5 -35l-36 60q39 30 87.5 45.5t102.5 15.5q40 0 75.5 -9
t62 -31t42 -57.5t15.5 -89.5v-223q0 -22 7.5 -30t31.5 -8h11v-62q-8 -2 -20 -4t-24 -2zM247 233q-59 0 -90 -21.5t-31 -66.5q0 -38 23 -60t71 -22q33 0 58 11t42.5 30t26 45.5t8.5 56.5v27h-108zM386 585h-69v9q0 35 -21 54t-53 19t-52.5 -19t-20.5 -54v-9h-70v10
q0 61 38.5 97t103.5 36q67 0 105.5 -37.5t38.5 -95.5v-10z" />
    <glyph glyph-name="uni0204" unicode="&#x204;" horiz-adv-x="574" 
d="M182 308v-229h350v-79h-444v690h444v-79h-350v-224h294v-79h-294zM271 760h-93l-130 128h111zM456 760h-93l-130 128h112z" />
    <glyph glyph-name="uni0205" unicode="&#x205;" horiz-adv-x="539" 
d="M137 229q5 -81 48.5 -123t124.5 -42q78 0 127 40l38 -59q-34 -30 -77.5 -44t-95.5 -14q-58 0 -105 17.5t-80 51.5t-51 84t-18 115q0 61 18 109t50.5 81t76 50.5t94.5 17.5t89.5 -16.5t64.5 -46.5t39 -71.5t13 -90.5q0 -31 -5 -59h-351zM289 439q-62 0 -102 -38t-48 -104
h270v8q0 64 -31 99t-89 35zM233 586h-83l-117 160h104zM410 586h-83l-117 160h104z" />
    <glyph glyph-name="uni0206" unicode="&#x206;" horiz-adv-x="574" 
d="M182 308v-229h350v-79h-444v690h444v-79h-350v-224h294v-79h-294zM390 758q0 35 -20 53.5t-52 18.5q-33 0 -52 -18.5t-19 -53.5h-72q0 63 37.5 98.5t104.5 35.5q69 0 106.5 -37t37.5 -97h-71z" />
    <glyph glyph-name="uni0207" unicode="&#x207;" horiz-adv-x="539" 
d="M137 229q5 -81 48.5 -123t124.5 -42q78 0 127 40l38 -59q-34 -30 -77.5 -44t-95.5 -14q-58 0 -105 17.5t-80 51.5t-51 84t-18 115q0 61 18 109t50.5 81t76 50.5t94.5 17.5t89.5 -16.5t64.5 -46.5t39 -71.5t13 -90.5q0 -31 -5 -59h-351zM289 439q-62 0 -102 -38t-48 -104
h270v8q0 64 -31 99t-89 35zM426 585h-69v9q0 35 -21 54t-53 19t-52.5 -19t-20.5 -54v-9h-70v10q0 61 38.5 97t103.5 36q67 0 105.5 -37.5t38.5 -95.5v-10z" />
    <glyph glyph-name="uni0208" unicode="&#x208;" horiz-adv-x="270" 
d="M182 0h-94v690h94v-690zM88 760h-93l-130 128h111zM273 760h-93l-130 128h112z" />
    <glyph glyph-name="uni0209" unicode="&#x209;" horiz-adv-x="245" 
d="M167 0h-89v500h89v-500zM72 586h-83l-117 160h104zM249 586h-83l-117 160h104z" />
    <glyph glyph-name="uni020A" unicode="&#x20a;" horiz-adv-x="270" 
d="M182 0h-94v690h94v-690zM207 758q0 35 -20 53.5t-52 18.5q-33 0 -52 -18.5t-19 -53.5h-72q0 63 37.5 98.5t104.5 35.5q69 0 106.5 -37t37.5 -97h-71z" />
    <glyph glyph-name="uni020B" unicode="&#x20b;" horiz-adv-x="245" 
d="M167 0h-89v500h89v-500zM265 585h-69v9q0 35 -21 54t-53 19t-52.5 -19t-20.5 -54v-9h-70v10q0 61 38.5 97t103.5 36q67 0 105.5 -37.5t38.5 -95.5v-10z" />
    <glyph glyph-name="uni020C" unicode="&#x20c;" horiz-adv-x="762" 
d="M154 345q0 -131 60.5 -203t166.5 -72t166.5 72t60.5 203t-60.5 203t-166.5 72t-166.5 -72t-60.5 -203zM56 345q0 82 23 149t65.5 113.5t102.5 72t134 25.5t134 -25.5t102.5 -72t65.5 -113.5t23 -149q0 -83 -23 -149.5t-65.5 -113t-102.5 -72t-134 -25.5t-134 25.5
t-102.5 72t-65.5 113t-23 149.5zM334 760h-93l-130 128h111zM519 760h-93l-130 128h112z" />
    <glyph glyph-name="uni020D" unicode="&#x20d;" horiz-adv-x="590" 
d="M542 250q0 -59 -18 -107.5t-50 -83t-78 -53.5t-101 -19q-56 0 -101.5 19t-77.5 53.5t-50 83t-18 107.5t18 107.5t50 83t77.5 53.5t101.5 19q55 0 101 -19t78 -53.5t50 -83t18 -107.5zM449 250q0 89 -40 137.5t-114 48.5t-114 -48.5t-40 -137.5t40 -137.5t114 -48.5
t114 48.5t40 137.5zM245 586h-83l-117 160h104zM422 586h-83l-117 160h104z" />
    <glyph glyph-name="uni020E" unicode="&#x20e;" horiz-adv-x="762" 
d="M154 345q0 -131 60.5 -203t166.5 -72t166.5 72t60.5 203t-60.5 203t-166.5 72t-166.5 -72t-60.5 -203zM56 345q0 82 23 149t65.5 113.5t102.5 72t134 25.5t134 -25.5t102.5 -72t65.5 -113.5t23 -149q0 -83 -23 -149.5t-65.5 -113t-102.5 -72t-134 -25.5t-134 25.5
t-102.5 72t-65.5 113t-23 149.5zM453 758q0 35 -20 53.5t-52 18.5q-33 0 -52 -18.5t-19 -53.5h-72q0 63 37.5 98.5t104.5 35.5q69 0 106.5 -37t37.5 -97h-71z" />
    <glyph glyph-name="uni020F" unicode="&#x20f;" horiz-adv-x="590" 
d="M542 250q0 -59 -18 -107.5t-50 -83t-78 -53.5t-101 -19q-56 0 -101.5 19t-77.5 53.5t-50 83t-18 107.5t18 107.5t50 83t77.5 53.5t101.5 19q55 0 101 -19t78 -53.5t50 -83t18 -107.5zM449 250q0 89 -40 137.5t-114 48.5t-114 -48.5t-40 -137.5t40 -137.5t114 -48.5
t114 48.5t40 137.5zM438 585h-69v9q0 35 -21 54t-53 19t-52.5 -19t-20.5 -54v-9h-70v10q0 61 38.5 97t103.5 36q67 0 105.5 -37.5t38.5 -95.5v-10z" />
    <glyph glyph-name="uni0210" unicode="&#x210;" horiz-adv-x="613" 
d="M551 493q0 -39 -12 -72t-34.5 -58.5t-53.5 -42t-68 -22.5l216 -298h-113l-173 253q-13 19 -25 25.5t-35 6.5h-75v-285h-90v690h225q112 0 175 -50.5t63 -146.5zM457 490q0 63 -36 92t-113 29h-130v-249h127q71 0 111.5 31t40.5 97zM248 760h-93l-130 128h111zM433 760
h-93l-130 128h112z" />
    <glyph glyph-name="uni0211" unicode="&#x211;" horiz-adv-x="372" 
d="M78 500h46q41 0 41 -36v-48q21 44 61 67.5t94 23.5q15 0 26 -1.5t18 -3.5v-74h-33q-83 0 -123.5 -44t-40.5 -143v-241h-89v500zM172 586h-83l-117 160h104zM349 586h-83l-117 160h104z" />
    <glyph glyph-name="uni0212" unicode="&#x212;" horiz-adv-x="613" 
d="M551 493q0 -39 -12 -72t-34.5 -58.5t-53.5 -42t-68 -22.5l216 -298h-113l-173 253q-13 19 -25 25.5t-35 6.5h-75v-285h-90v690h225q112 0 175 -50.5t63 -146.5zM457 490q0 63 -36 92t-113 29h-130v-249h127q71 0 111.5 31t40.5 97zM367 758q0 35 -20 53.5t-52 18.5
q-33 0 -52 -18.5t-19 -53.5h-72q0 63 37.5 98.5t104.5 35.5q69 0 106.5 -37t37.5 -97h-71z" />
    <glyph glyph-name="uni0213" unicode="&#x213;" horiz-adv-x="372" 
d="M78 500h46q41 0 41 -36v-48q21 44 61 67.5t94 23.5q15 0 26 -1.5t18 -3.5v-74h-33q-83 0 -123.5 -44t-40.5 -143v-241h-89v500zM365 585h-69v9q0 35 -21 54t-53 19t-52.5 -19t-20.5 -54v-9h-70v10q0 61 38.5 97t103.5 36q67 0 105.5 -37.5t38.5 -95.5v-10z" />
    <glyph glyph-name="uni0214" unicode="&#x214;" horiz-adv-x="706" 
d="M353 -15q-132 0 -200.5 74t-68.5 215v416h94v-420q0 -101 42 -150.5t133 -49.5t133 49.5t42 150.5v420h94v-416q0 -141 -68.5 -215t-200.5 -74zM306 760h-93l-130 128h111zM491 760h-93l-130 128h112z" />
    <glyph glyph-name="uni0215" unicode="&#x215;" horiz-adv-x="577" 
d="M499 0h-45q-41 0 -41 36v40q-18 -35 -57 -62t-103 -27q-85 0 -132 52t-47 147v314h89v-307q0 -65 25.5 -97t79.5 -32q66 0 104 46t38 128v262h89v-500zM237 586h-83l-117 160h104zM414 586h-83l-117 160h104z" />
    <glyph glyph-name="uni0216" unicode="&#x216;" horiz-adv-x="706" 
d="M353 -15q-132 0 -200.5 74t-68.5 215v416h94v-420q0 -101 42 -150.5t133 -49.5t133 49.5t42 150.5v420h94v-416q0 -141 -68.5 -215t-200.5 -74zM425 758q0 35 -20 53.5t-52 18.5q-33 0 -52 -18.5t-19 -53.5h-72q0 63 37.5 98.5t104.5 35.5q69 0 106.5 -37t37.5 -97h-71z
" />
    <glyph glyph-name="uni0217" unicode="&#x217;" horiz-adv-x="577" 
d="M499 0h-45q-41 0 -41 36v40q-18 -35 -57 -62t-103 -27q-85 0 -132 52t-47 147v314h89v-307q0 -65 25.5 -97t79.5 -32q66 0 104 46t38 128v262h89v-500zM429 585h-69v9q0 35 -21 54t-53 19t-52.5 -19t-20.5 -54v-9h-70v10q0 61 38.5 97t103.5 36q67 0 105.5 -37.5
t38.5 -95.5v-10z" />
    <glyph glyph-name="uni0218" unicode="&#x218;" horiz-adv-x="595" 
d="M311 623q-69 0 -113 -26t-44 -85q0 -35 21 -61.5t78 -42.5l127 -36q36 -10 66 -24.5t51.5 -36t33.5 -50.5t12 -68q0 -46 -17 -84t-49 -65.5t-79.5 -43t-108.5 -15.5q-72 0 -137.5 22t-113.5 64l46 67q45 -35 94 -53t106 -18q76 0 120 30t44 90q0 45 -26 68t-76 37
l-130 35q-78 21 -118 65.5t-40 113.5q0 47 18 84t50.5 62.5t77.5 39t99 13.5q60 0 119 -16.5t104 -50.5l-40 -66q-74 51 -175 51zM256 -260q11 23 17 48t6 45h-34v98h95v-60q0 -42 -8.5 -82.5t-22.5 -69.5z" />
    <glyph glyph-name="uni0219" unicode="&#x219;" horiz-adv-x="466" 
d="M238 439q-41 0 -69 -16t-28 -53q0 -17 11.5 -34.5t51.5 -29.5l92 -28q66 -20 96 -52.5t30 -83.5q0 -69 -49.5 -112t-142.5 -43q-60 0 -108.5 17.5t-85.5 49.5l41 62q32 -25 70.5 -39.5t83.5 -14.5q46 0 74.5 19t28.5 59q0 25 -14.5 40t-49.5 26l-95 28q-62 18 -92 51
t-30 84q0 36 14 63t39 45t58.5 27t72.5 9q47 0 93.5 -12.5t79.5 -38.5l-33 -62q-28 17 -62.5 28t-76.5 11zM197 -261q11 23 17 49t6 46h-35v97h92v-60q0 -42 -7.5 -82.5t-22.5 -69.5z" />
    <glyph glyph-name="uni021A" unicode="&#x21a;" horiz-adv-x="606" 
d="M351 611v-611h-94v611h-237v79h566v-79h-235zM268 -260q11 23 17 48t6 45h-34v98h95v-60q0 -42 -8.5 -82.5t-22.5 -69.5z" />
    <glyph glyph-name="uni021B" unicode="&#x21b;" horiz-adv-x="349" 
d="M321 1q-13 -2 -26 -3.5t-29 -1.5q-84 0 -121.5 40t-37.5 132v260h-85v72h85v126h89v-126h125v-72h-125v-270q0 -51 22.5 -69.5t77.5 -18.5h25v-69zM187 -261q11 23 17 49t6 46h-35v97h92v-60q0 -42 -7.5 -82.5t-22.5 -69.5z" />
    <glyph glyph-name="uni021E" unicode="&#x21e;" horiz-adv-x="704" 
d="M522 0v310h-340v-310h-94v690h94v-301h340v301h94v-690h-94zM272 899l80 -74l82 74h92l-130 -139h-87l-131 139h94z" />
    <glyph glyph-name="uni021F" unicode="&#x21f;" horiz-adv-x="589" 
d="M167 717v-289q23 39 66 62t103 23q86 0 131.5 -49t45.5 -144v-320h-89v311q0 64 -26.5 94.5t-83.5 30.5q-66 0 -106.5 -44t-40.5 -125v-267h-89v717h89zM43 914l80 -74l82 74h92l-130 -139h-87l-131 139h94z" />
    <glyph glyph-name="uni0220" unicode="&#x220;" horiz-adv-x="704" 
d="M620 -210h-94v650q0 82 -35 131t-113 49q-45 0 -81.5 -17.5t-62 -48.5t-39 -74t-13.5 -94v-386h-94v690h54q37 0 37 -33v-86q14 27 34 51.5t47 42.5t61.5 29t77.5 11q101 0 161 -62t60 -177v-676z" />
    <glyph glyph-name="uni0222" unicode="&#x222;" horiz-adv-x="617" 
d="M466 707q35 -30 58.5 -68.5t23.5 -91.5q0 -59 -31.5 -101t-82.5 -62q29 -11 54.5 -28.5t44 -40.5t29 -52t10.5 -63q0 -51 -19.5 -90.5t-54.5 -67.5t-83.5 -42.5t-106.5 -14.5q-57 0 -105.5 14.5t-83.5 42.5t-54.5 67.5t-19.5 90.5q0 68 39 115t98 69q-50 20 -81.5 62
t-31.5 100q0 54 24 92.5t58 68.5l57 -51q-20 -23 -33 -48.5t-13 -60.5q0 -57 39 -92t107 -35q69 0 108 35t39 92q0 35 -13 60.5t-33 48.5zM477 204q0 66 -46 103.5t-123 37.5q-76 0 -122 -37.5t-46 -103.5q0 -34 12.5 -60.5t35 -45t53 -28.5t67.5 -10t68 10t53.5 28.5t35 45
t12.5 60.5z" />
    <glyph glyph-name="uni0223" unicode="&#x223;" horiz-adv-x="578" 
d="M418 723q45 -41 65.5 -83.5t20.5 -92.5q0 -52 -28 -93t-76 -63q60 -24 95 -74.5t35 -115.5q0 -47 -17.5 -86.5t-49.5 -68t-76.5 -44t-97.5 -15.5t-97.5 15.5t-76.5 44t-49.5 68t-17.5 86.5q0 65 35 115.5t95 74.5q-48 22 -75.5 63t-27.5 92t20.5 93.5t65.5 83.5l55 -47
q-29 -34 -41.5 -64t-12.5 -65q0 -55 35 -88.5t92 -33.5q58 0 93 33.5t35 88.5q0 35 -13 65t-42 64zM439 203q0 33 -11 60t-30.5 46.5t-47 30t-61.5 10.5t-61.5 -10.5t-47 -30t-30.5 -46.5t-11 -60q0 -65 40.5 -103t109.5 -38t109.5 38t40.5 103z" />
    <glyph glyph-name="uni0226" unicode="&#x226;" horiz-adv-x="649" 
d="M468 191h-295l-70 -191h-91l264 690h97l264 -690h-99zM201 268h239l-120 323zM277 880h95v-102h-95v102z" />
    <glyph glyph-name="uni0227" unicode="&#x227;" horiz-adv-x="519" 
d="M445 -3q-40 0 -58.5 20.5t-20.5 58.5q-21 -41 -63.5 -64t-99.5 -23q-39 0 -69.5 11.5t-51.5 32t-31.5 48.5t-10.5 60q0 42 17 72t45.5 48.5t65.5 27.5t77 9h110v30q0 52 -26 81.5t-93 29.5q-40 0 -76.5 -12t-69.5 -35l-36 60q39 30 87.5 45.5t102.5 15.5q40 0 75.5 -9
t62 -31t42 -57.5t15.5 -89.5v-223q0 -22 7.5 -30t31.5 -8h11v-62q-8 -2 -20 -4t-24 -2zM247 233q-59 0 -90 -21.5t-31 -66.5q0 -38 23 -60t71 -22q33 0 58 11t42.5 30t26 45.5t8.5 56.5v27h-108zM197 700h93v-100h-93v100z" />
    <glyph glyph-name="uni0228" unicode="&#x228;" horiz-adv-x="574" 
d="M532 0h-183l-16 -55q44 -2 69 -22.5t25 -55.5q0 -41 -34.5 -66.5t-90.5 -25.5q-20 0 -42.5 3.5t-39.5 10.5l16 55q15 -5 31 -7.5t32 -2.5q23 0 37.5 7t14.5 24q0 19 -17.5 26t-50.5 7h-29l27 102h-193v690h444v-79h-350v-224h294v-79h-294v-229h350v-79z" />
    <glyph glyph-name="uni0229" unicode="&#x229;" horiz-adv-x="539" 
d="M475 45q-30 -27 -67.5 -41t-82.5 -16l-12 -43q45 -2 70.5 -22t25.5 -56q0 -41 -34.5 -66.5t-90.5 -25.5q-20 0 -42.5 3.5t-39.5 10.5l16 53q15 -5 31 -7.5t32 -2.5q23 0 38.5 7t15.5 26q0 20 -18.5 27.5t-51.5 7.5h-29l24 90q-99 11 -155.5 79t-56.5 186q0 61 18 109
t50.5 81t76 50.5t94.5 17.5t89.5 -16.5t64.5 -46.5t39 -71.5t13 -90.5q0 -31 -5 -59h-351q5 -81 48.5 -123t124.5 -42q78 0 127 40zM409 297v8q0 64 -31 99t-89 35q-62 0 -102 -38t-48 -104h270z" />
    <glyph glyph-name="uni022A" unicode="&#x22a;" horiz-adv-x="762" 
d="M154 345q0 -131 60.5 -203t166.5 -72t166.5 72t60.5 203t-60.5 203t-166.5 72t-166.5 -72t-60.5 -203zM56 345q0 82 23 149t65.5 113.5t102.5 72t134 25.5t134 -25.5t102.5 -72t65.5 -113.5t23 -149q0 -83 -23 -149.5t-65.5 -113t-102.5 -72t-134 -25.5t-134 25.5
t-102.5 72t-65.5 113t-23 149.5zM325 774h-87v87h87v-87zM524 774h-87v87h87v-87zM538 940h-313v62h313v-62z" />
    <glyph glyph-name="uni022B" unicode="&#x22b;" horiz-adv-x="590" 
d="M542 250q0 -59 -18 -107.5t-50 -83t-78 -53.5t-101 -19q-56 0 -101.5 19t-77.5 53.5t-50 83t-18 107.5t18 107.5t50 83t77.5 53.5t101.5 19q55 0 101 -19t78 -53.5t50 -83t18 -107.5zM449 250q0 89 -40 137.5t-114 48.5t-114 -48.5t-40 -137.5t40 -137.5t114 -48.5
t114 48.5t40 137.5zM440 606h-89v87h89v-87zM240 606h-89v87h89v-87zM459 768h-328v60h328v-60z" />
    <glyph glyph-name="uni022C" unicode="&#x22c;" horiz-adv-x="762" 
d="M154 345q0 -131 60.5 -203t166.5 -72t166.5 72t60.5 203t-60.5 203t-166.5 72t-166.5 -72t-60.5 -203zM56 345q0 82 23 149t65.5 113.5t102.5 72t134 25.5t134 -25.5t102.5 -72t65.5 -113.5t23 -149q0 -83 -23 -149.5t-65.5 -113t-102.5 -72t-134 -25.5t-134 25.5
t-102.5 72t-65.5 113t-23 149.5zM541 853q0 -45 -22.5 -72t-60.5 -27q-29 0 -46.5 9t-37.5 21q-20 13 -31.5 18t-25.5 5q-17 0 -25 -11t-8 -28v-9h-64v10q0 46 23.5 72.5t64.5 26.5q27 0 43.5 -6.5t37.5 -20.5q19 -12 32.5 -19.5t27.5 -7.5q16 0 22 11.5t6 28.5v9h64v-10z
M538 939h-313v62h313v-62z" />
    <glyph glyph-name="uni022D" unicode="&#x22d;" horiz-adv-x="590" 
d="M542 250q0 -59 -18 -107.5t-50 -83t-78 -53.5t-101 -19q-56 0 -101.5 19t-77.5 53.5t-50 83t-18 107.5t18 107.5t50 83t77.5 53.5t101.5 19q55 0 101 -19t78 -53.5t50 -83t18 -107.5zM449 250q0 89 -40 137.5t-114 48.5t-114 -48.5t-40 -137.5t40 -137.5t114 -48.5
t114 48.5t40 137.5zM459 697q0 -48 -24 -75.5t-67 -27.5q-25 0 -44 10t-37 22q-17 11 -29 17.5t-26 6.5q-21 0 -28 -12t-7 -31v-8h-66v10q0 48 24 75.5t68 27.5q26 0 45 -10t39 -23q16 -11 27 -17t24 -6q21 0 28 11.5t7 30.5v9h66v-10zM459 780h-328v60h328v-60z" />
    <glyph glyph-name="uni022E" unicode="&#x22e;" horiz-adv-x="762" 
d="M154 345q0 -131 60.5 -203t166.5 -72t166.5 72t60.5 203t-60.5 203t-166.5 72t-166.5 -72t-60.5 -203zM56 345q0 82 23 149t65.5 113.5t102.5 72t134 25.5t134 -25.5t102.5 -72t65.5 -113.5t23 -149q0 -83 -23 -149.5t-65.5 -113t-102.5 -72t-134 -25.5t-134 25.5
t-102.5 72t-65.5 113t-23 149.5zM334 880h95v-102h-95v102z" />
    <glyph glyph-name="uni022F" unicode="&#x22f;" horiz-adv-x="590" 
d="M542 250q0 -59 -18 -107.5t-50 -83t-78 -53.5t-101 -19q-56 0 -101.5 19t-77.5 53.5t-50 83t-18 107.5t18 107.5t50 83t77.5 53.5t101.5 19q55 0 101 -19t78 -53.5t50 -83t18 -107.5zM449 250q0 89 -40 137.5t-114 48.5t-114 -48.5t-40 -137.5t40 -137.5t114 -48.5
t114 48.5t40 137.5zM249 700h93v-100h-93v100z" />
    <glyph glyph-name="uni0230" unicode="&#x230;" horiz-adv-x="762" 
d="M154 345q0 -131 60.5 -203t166.5 -72t166.5 72t60.5 203t-60.5 203t-166.5 72t-166.5 -72t-60.5 -203zM56 345q0 82 23 149t65.5 113.5t102.5 72t134 25.5t134 -25.5t102.5 -72t65.5 -113.5t23 -149q0 -83 -23 -149.5t-65.5 -113t-102.5 -72t-134 -25.5t-134 25.5
t-102.5 72t-65.5 113t-23 149.5zM427 775h-91v91h91v-91zM538 940h-313v62h313v-62z" />
    <glyph glyph-name="uni0231" unicode="&#x231;" horiz-adv-x="590" 
d="M542 250q0 -59 -18 -107.5t-50 -83t-78 -53.5t-101 -19q-56 0 -101.5 19t-77.5 53.5t-50 83t-18 107.5t18 107.5t50 83t77.5 53.5t101.5 19q55 0 101 -19t78 -53.5t50 -83t18 -107.5zM449 250q0 89 -40 137.5t-114 48.5t-114 -48.5t-40 -137.5t40 -137.5t114 -48.5
t114 48.5t40 137.5zM343 608h-95v94h95v-94zM459 777h-328v60h328v-60z" />
    <glyph glyph-name="uni0232" unicode="&#x232;" horiz-adv-x="614" 
d="M353 266v-266h-94v266l-243 424h103l190 -342l189 342h100zM145 786v68h328v-68h-328z" />
    <glyph glyph-name="uni0233" unicode="&#x233;" horiz-adv-x="508" 
d="M104 500l151 -407l153 407h90l-227 -570q-14 -34 -27 -61.5t-31 -46.5t-43.5 -29t-62.5 -10q-17 0 -28 1.5t-19 3.5v69h26q21 0 36.5 3t27 11t20.5 22.5t18 37.5l24 64l-202 505h94zM91 617v67h327v-67h-327z" />
    <glyph glyph-name="uni0237" unicode="&#x237;" horiz-adv-x="245" 
d="M3 -143q24 0 38.5 3t23 11t11 20.5t2.5 32.5v576h89v-582q0 -67 -30 -101t-98 -34q-11 0 -23 1t-22 4v69h9z" />
    <glyph glyph-name="uni023A" unicode="&#x23a;" horiz-adv-x="649" 
d="M637 0h-98l-85 229h-158l-252 -332l-45 35l54 68h-41l264 690h97l69 -180l159 209l45 -36l-182 -232zM282 301l98 128l-60 162l-108 -290h70zM428 301l-26 70l-55 -70h81zM143 118l84 111h-43z" />
    <glyph glyph-name="uni023B" unicode="&#x23b;" horiz-adv-x="632" 
d="M592 53q-36 -31 -89 -49.5t-122 -18.5q-43 0 -80 8.5t-69 22.5l-29 -64l-61 27l33 74q-60 50 -89.5 126.5t-29.5 167.5q0 85 23.5 151.5t67 112.5t104.5 70t136 24q42 0 80 -9l30 66l61 -28l-27 -59q28 -13 54 -32l-43 -70q-11 8 -22 15t-23 12l-229 -504q49 -27 118 -27
q49 0 89.5 14t72.5 40zM432 618q-20 3 -41 3q-112 0 -174.5 -71.5t-62.5 -203.5q0 -135 61 -207z" />
    <glyph glyph-name="uni023C" unicode="&#x23c;" horiz-adv-x="485" 
d="M459 36q-61 -49 -158 -49q-36 0 -66.5 7t-56.5 19l-27 -58l-50 23l31 65q-42 36 -63 88.5t-21 115.5q0 60 17.5 109.5t50.5 84t80.5 53.5t107.5 19q13 0 25.5 -1t24.5 -3l27 56l50 -23l-23 -49q27 -12 49 -28l-36 -62q-9 7 -20 13t-25 11l-163 -341q39 -24 96 -24
q29 0 59.5 9t55.5 27zM320 438h-11q-78 0 -123.5 -48t-45.5 -139q0 -77 32 -124z" />
    <glyph glyph-name="uni023D" unicode="&#x23d;" horiz-adv-x="541" 
d="M521 0h-423v322h-82v70h82v298h94v-298h195v-70h-195v-243h329v-79z" />
    <glyph glyph-name="uni023E" unicode="&#x23e;" horiz-adv-x="616" 
d="M349 0h-92v115l-96 -183l-54 26l150 285v369h-237v78h472l42 79l52 -26l-28 -53h38v-78h-79l-168 -322v-290zM349 417l102 195h-102v-195z" />
    <glyph glyph-name="uni0241" unicode="&#x241;" horiz-adv-x="495" 
d="M240 0h-94v189q0 37 4 63.5t14.5 47t28 37t45.5 32.5l35 20q42 24 64 50t22 69q0 30 -11 51.5t-30.5 36t-46 21t-56.5 6.5q-53 0 -96 -14t-84 -38l-36 67q46 29 103.5 48t124.5 19q47 0 89 -12t73 -36t49 -59.5t18 -82.5q0 -65 -32.5 -107t-90.5 -76l-37 -21
q-21 -12 -32 -24.5t-16.5 -27.5t-6.5 -33.5t-1 -41.5v-184z" />
    <glyph glyph-name="uni0242" unicode="&#x242;" horiz-adv-x="462" 
d="M245 0h-89v86q0 31 3.5 53t12 38.5t23.5 30t38 27.5l31 18q33 20 49 40.5t16 52.5q0 46 -33.5 68t-83.5 22q-46 0 -86.5 -15.5t-77.5 -41.5l-40 58q46 36 99.5 56t113.5 20q42 0 78.5 -10.5t63 -30.5t42 -49.5t15.5 -68.5q0 -51 -24 -86t-72 -64l-30 -18
q-17 -10 -26.5 -19.5t-14.5 -21.5t-6.5 -28.5t-1.5 -38.5v-78z" />
    <glyph glyph-name="uni0243" unicode="&#x243;" horiz-adv-x="630" 
d="M98 0v165h-82v60h82v465h218q113 0 173.5 -47.5t60.5 -134.5q0 -53 -23.5 -90.5t-67.5 -59.5q127 -34 127 -162q0 -94 -63 -145t-184 -51h-241zM324 77q85 0 126.5 28t41.5 93q0 114 -136 114h-169v-87h139v-60h-139v-88h137zM314 387q72 0 107 26t35 86q0 57 -35 85.5
t-113 28.5h-121v-226h127z" />
    <glyph glyph-name="uni0244" unicode="&#x244;" horiz-adv-x="734" 
d="M718 326h-82v-52q0 -141 -68.5 -215t-200.5 -74t-200.5 74t-68.5 215v52h-82v65h82v299h94v-299h350v299h94v-299h82v-65zM542 326h-350v-56q0 -101 42 -150.5t133 -49.5t133 49.5t42 150.5v56z" />
    <glyph glyph-name="uni0245" unicode="&#x245;" horiz-adv-x="643" 
d="M317 589l-213 -589h-92l261 690h97l261 -690h-99z" />
    <glyph glyph-name="uni0246" unicode="&#x246;" horiz-adv-x="574" 
d="M532 0h-295l-25 -73l-60 20l18 53h-82v690h318l26 74l60 -20l-19 -54h59v-78h-86l-77 -226h107v-77h-134l-79 -231h269v-78zM302 386l78 226h-199v-226h121zM196 78l80 231h-95v-231h15z" />
    <glyph glyph-name="uni0247" unicode="&#x247;" horiz-adv-x="539" 
d="M475 45q-34 -30 -77.5 -44t-95.5 -14q-38 0 -71 8t-61 22l-35 -61l-48 28l38 65q-37 35 -57 86.5t-20 119.5q0 61 18 109t50.5 81t76 50.5t94.5 17.5q28 0 52.5 -5.5t45.5 -15.5l29 52l49 -28l-33 -56q63 -63 63 -172q0 -30 -5 -58h-195l-85 -144q40 -23 102 -23
q39 0 71 10.5t56 30.5zM273 296l77 131q-26 14 -61 14q-63 0 -102.5 -39.5t-47.5 -105.5h134zM234 230h-97q3 -68 33 -109zM410 296v9q0 26 -5.5 47.5t-15.5 38.5l-57 -95h78z" />
    <glyph glyph-name="uni0248" unicode="&#x248;" horiz-adv-x="520" 
d="M426 225q0 -115 -58 -177.5t-167 -62.5q-56 0 -104.5 19t-78.5 45l44 67q34 -26 68.5 -36.5t73.5 -10.5q67 0 97.5 39t30.5 118v96h-171v70h171v298h94v-298h82v-70h-82v-97z" />
    <glyph glyph-name="uni0249" unicode="&#x249;" horiz-adv-x="279" 
d="M179 -82q0 -67 -30 -101t-98 -34q-11 0 -23 1t-22 4v69h9q24 0 38.5 3t23 11t11 20.5t2.5 32.5v310h-82v64h82v202h89v-202h82v-64h-82v-316zM181 600h-93v100h93v-100z" />
    <glyph glyph-name="uni024C" unicode="&#x24c;" horiz-adv-x="636" 
d="M622 0h-113l-173 253q-13 19 -25 25.5t-35 6.5h-75v-285h-90v289h-104v70h104v331h225q112 0 175 -50.5t63 -146.5q0 -39 -12 -72t-34.5 -58.5t-53.5 -42t-68 -22.5zM328 362q71 0 111.5 31t40.5 97q0 63 -36 92t-113 29h-130v-249h127z" />
    <glyph glyph-name="uni024D" unicode="&#x24d;" horiz-adv-x="377" 
d="M169 0h-89v234h-72v64h72v202h46q41 0 41 -36v-48q21 44 61 67.5t94 23.5q15 0 26 -1.5t18 -3.5v-74h-33q-147 0 -162 -130h156v-64h-158v-234z" />
    <glyph glyph-name="uni024E" unicode="&#x24e;" horiz-adv-x="626" 
d="M358 0h-94v256l-118 211h-121v60h87l-91 163h101l87 -163h209l88 163h97l-92 -163h94v-60h-128l-119 -211v-256zM314 333l72 134h-144z" />
    <glyph glyph-name="uni024F" unicode="&#x24f;" horiz-adv-x="532" 
d="M284 -70q-14 -34 -27 -61.5t-31 -46.5t-43.5 -29t-62.5 -10q-17 0 -28 1.5t-19 3.5v69h26q21 0 36.5 3t27 11t20.5 22.5t18 37.5l24 64l-96 239h-116v64h91l-81 202h94l75 -202h153l76 202h90l-81 -202h89v-64h-114zM268 90l55 146h-109z" />
    <glyph glyph-name="uni0251" unicode="&#x251;" horiz-adv-x="607" 
d="M587 -2q-17 -3 -41 -3q-44 0 -73 25t-34 76q-27 -49 -71.5 -79t-104.5 -30q-48 0 -88 18t-68 51t-43.5 79t-15.5 102q0 54 14 104t41.5 88.5t70 61t99.5 22.5q67 0 110 -29.5t64 -81.5l16 98h86q-19 -75 -34.5 -154t-15.5 -160q0 -56 17.5 -86.5t59.5 -30.5h11v-71z
M285 436q-72 0 -108 -54.5t-36 -142.5q0 -81 36 -128t101 -47q37 0 64.5 16t45.5 43t26.5 62.5t8.5 74.5q0 83 -36.5 129.5t-101.5 46.5z" />
    <glyph glyph-name="uni0253" unicode="&#x253;" horiz-adv-x="604" 
d="M165 36q0 -36 -41 -36h-46v521q0 100 49.5 149.5t143.5 49.5q31 0 57.5 -4t55.5 -12l-15 -70q-21 5 -41 8.5t-45 3.5q-60 0 -88 -33t-28 -104v-86q22 41 67.5 65.5t104.5 24.5q52 0 92.5 -18t68 -51.5t42 -80t14.5 -103.5q0 -59 -15 -109t-44 -86.5t-72 -57t-99 -20.5
q-55 0 -96.5 21.5t-64.5 59.5v-32zM315 64q72 0 110 50t38 141q0 88 -35.5 134.5t-104.5 46.5q-75 0 -116.5 -51.5t-41.5 -139.5q0 -85 39.5 -133t110.5 -48z" />
    <glyph glyph-name="uni0254" unicode="&#x254;" horiz-adv-x="486" 
d="M58 105q53 -41 125 -41q78 0 120 49t42 138q0 90 -42.5 137.5t-120.5 47.5q-35 0 -65.5 -8.5t-53.5 -23.5l-31 62q31 23 73 35t91 12q55 0 100 -18.5t76.5 -52t48.5 -81.5t17 -108q0 -62 -18 -111t-51 -83.5t-80 -53t-106 -18.5q-46 0 -90.5 15t-74.5 41z" />
    <glyph glyph-name="uni0256" unicode="&#x256;" horiz-adv-x="603" 
d="M652 -213q-11 -2 -27 -3.5t-33 -1.5q-155 0 -155 155v132q-25 -37 -67 -59.5t-99 -22.5q-54 0 -95.5 19t-70 54t-43 83t-14.5 107q0 58 15.5 106t44.5 83t72 54.5t97 19.5t95 -21t65 -58v283h89v-769q0 -53 26 -72.5t76 -19.5h24v-69zM291 64q70 0 109.5 49.5t39.5 136.5
q0 91 -38 138.5t-111 47.5q-72 0 -111 -48.5t-39 -137.5q0 -92 38.5 -139t111.5 -47z" />
    <glyph glyph-name="uni0257" unicode="&#x257;" horiz-adv-x="603" 
d="M526 0h-45q-41 0 -41 36v38q-23 -39 -67 -63t-102 -24q-54 0 -95.5 19t-70 54t-43 83t-14.5 107q0 58 15.5 106t44.5 83t72 54.5t97 19.5t95 -21t65 -58v131q0 155 163 155q25 0 53 -5v-68h-20q-57 0 -82 -22t-25 -76v-549zM291 64q70 0 109.5 49.5t39.5 136.5
q0 91 -38 138.5t-111 47.5q-72 0 -111 -48.5t-39 -137.5q0 -92 38.5 -139t111.5 -47z" />
    <glyph glyph-name="uni0259" unicode="&#x259;" horiz-adv-x="539" 
d="M242 436q-82 0 -140 -37l-38 59q73 55 178 55q117 0 183 -71t66 -197q0 -58 -16.5 -105.5t-47 -81.5t-73.5 -52.5t-95 -18.5q-99 0 -156 60t-57 165q0 31 5 59h351q-4 78 -45.5 121.5t-114.5 43.5zM130 203v-8q0 -63 34.5 -98.5t94.5 -35.5q59 0 96 38t45 104h-270z" />
    <glyph glyph-name="uni025B" unicode="&#x25b;" horiz-adv-x="480" 
d="M61 380q0 33 14.5 58t41 41.5t62 25t77.5 8.5q101 0 178 -47l-29 -63q-32 17 -66.5 26t-73.5 9q-50 0 -81.5 -16t-31.5 -49q0 -20 11 -34.5t29 -24t39.5 -14.5t42.5 -5h81v-72h-81q-27 0 -51 -5t-42 -15.5t-28.5 -26.5t-10.5 -38q0 -37 34.5 -56.5t94.5 -19.5
q42 0 82 10.5t72 27.5l29 -63q-34 -22 -85 -36t-104 -14q-46 0 -85 8.5t-68 26t-45.5 44.5t-16.5 65q0 51 32.5 84t86.5 46q-46 12 -77 41.5t-31 77.5z" />
    <glyph glyph-name="uni0260" unicode="&#x260;" horiz-adv-x="604" 
d="M526 17q0 -116 -64.5 -177t-185.5 -61q-55 0 -105.5 15t-89.5 43l36 64q34 -22 73 -33.5t83 -11.5q75 0 119.5 40t44.5 122v51q-25 -38 -67 -60t-99 -22q-54 0 -95.5 19t-70 54t-43 83t-14.5 107q0 58 15.5 106t44.5 83t72 54.5t97 19.5t95 -21t65 -58v131q0 155 163 155
q25 0 53 -5v-68h-20q-57 0 -82 -22t-25 -76v-532zM291 64q70 0 109.5 49.5t39.5 136.5q0 91 -38 138.5t-111 47.5q-72 0 -111 -48.5t-39 -137.5q0 -92 38.5 -139t111.5 -47z" />
    <glyph glyph-name="uni0263" unicode="&#x263;" horiz-adv-x="528" 
d="M339 53q18 -31 35 -67.5t17 -77.5q0 -28 -10 -51t-27 -39.5t-41 -25.5t-51 -9q-54 0 -89 32.5t-35 86.5q0 43 15.5 78.5t35.5 70.5l32 57l-211 392h94l160 -322l164 322h90l-212 -392zM262 34q-25 -43 -36 -71.5t-11 -56.5q0 -26 13 -40.5t36 -14.5q22 0 35 14.5t13 40.5
q0 13 -2.5 25t-8 26.5t-15 32.5t-24.5 44z" />
    <glyph glyph-name="uni0265" unicode="&#x265;" horiz-adv-x="577" 
d="M499 -210h-89v280q-10 -16 -24 -31t-33 -26.5t-44 -18.5t-56 -7q-85 0 -132 52t-47 147v314h89v-307q0 -65 25.5 -97t79.5 -32q66 0 104 46t38 128v262h89v-710z" />
    <glyph glyph-name="uni0266" unicode="&#x266;" horiz-adv-x="589" 
d="M513 0h-89v311q0 64 -26.5 94.5t-83.5 30.5q-66 0 -106.5 -44t-40.5 -125v-267h-89v521q0 100 49.5 149.5t143.5 49.5q31 0 57.5 -4t55.5 -12l-15 -70q-21 5 -41 8.5t-45 3.5q-60 0 -88 -33t-28 -104v-81q23 39 66 62t103 23q86 0 131.5 -49t45.5 -144v-320z" />
    <glyph glyph-name="uni0268" unicode="&#x268;" horiz-adv-x="289" 
d="M189 0h-89v234h-82v64h82v202h89v-202h82v-64h-82v-234zM191 600h-93v100h93v-100z" />
    <glyph glyph-name="uni0269" unicode="&#x269;" horiz-adv-x="276" 
d="M165 500v-364q0 -42 13.5 -54.5t49.5 -12.5h7v-70q-9 -2 -19 -3t-21 -1q-60 0 -89.5 32.5t-29.5 102.5v370h89z" />
    <glyph glyph-name="uni026B" unicode="&#x26b;" horiz-adv-x="333" 
d="M273 -1q-9 -2 -19 -3t-21 -1q-60 0 -89.5 32.5t-29.5 102.5v268q-14 9 -30 9q-20 0 -28 -13t-8 -36v-9h-55v11q0 46 18 73.5t59 27.5q24 0 44 -14v270h89v-311q7 -5 15.5 -8t18.5 -3q19 0 26.5 12.5t7.5 35.5v11h55v-12q0 -46 -17 -73.5t-58 -27.5q-27 0 -48 15v-220
q0 -42 13.5 -54.5t49.5 -12.5h7v-70z" />
    <glyph glyph-name="uni026C" unicode="&#x26c;" horiz-adv-x="379" 
d="M307 -1q-9 -2 -19 -3t-21 -1q-60 0 -89.5 32.5t-29.5 102.5v186q-29 3 -56.5 11t-49 22t-34.5 35.5t-13 50.5q0 44 27 68t65 24q37 0 61 -22v212h89v-344q58 10 121 40l21 -45q-30 -17 -67 -29t-75 -18v-185q0 -42 13.5 -54.5t49.5 -12.5h7v-70zM150 412q0 31 -13.5 49
t-39.5 18q-20 0 -31 -12t-11 -32q0 -31 27.5 -47.5t67.5 -19.5v44z" />
    <glyph glyph-name="uni0272" unicode="&#x272;" horiz-adv-x="589" 
d="M513 0h-89v311q0 64 -26.5 94.5t-83.5 30.5q-66 0 -106.5 -44t-40.5 -125v-344q0 -140 -145 -140q-14 0 -26.5 1t-22.5 3v70h23q45 0 63.5 16.5t18.5 56.5v570h46q41 0 41 -36v-39q23 41 66.5 64.5t104.5 23.5q86 0 131.5 -49t45.5 -144v-320z" />
    <glyph glyph-name="uni0275" unicode="&#x275;" horiz-adv-x="590" 
d="M295 -13q-56 0 -101.5 19t-77.5 53.5t-50 83t-18 107.5t18 107.5t50 83t77.5 53.5t101.5 19q55 0 101 -19t78 -53.5t50 -83t18 -107.5t-18 -107.5t-50 -83t-78 -53.5t-101 -19zM137 235q4 -82 45 -127t113 -45t113 45t44 127h-315zM449 297q-11 67 -50 103.5t-104 36.5
t-104.5 -36.5t-50.5 -103.5h309z" />
    <glyph glyph-name="uni027D" unicode="&#x27d;" horiz-adv-x="372" 
d="M293 -213q-11 -2 -27 -3.5t-33 -1.5q-155 0 -155 155v563h46q41 0 41 -36v-48q21 44 61 67.5t94 23.5q15 0 26 -1.5t18 -3.5v-74h-33q-83 0 -123.5 -44t-40.5 -143v-293q0 -53 26 -72.5t76 -19.5h24v-69z" />
    <glyph glyph-name="uni0283" unicode="&#x283;" horiz-adv-x="275" 
d="M-5 -141q61 0 85 22.5t24 81.5q0 34 -1.5 72t-5.5 92l-20 268q-3 45 -6 84.5t-3 78.5q0 81 45 121.5t126 40.5q31 0 56 -5v-71h-17q-65 0 -93.5 -20t-28.5 -78q0 -23 2.5 -64t6.5 -91l20 -268q3 -43 5.5 -84t2.5 -83q0 -85 -41 -129t-129 -44q-13 0 -26.5 1t-24.5 4v71
h23z" />
    <glyph glyph-name="uni0288" unicode="&#x288;" horiz-adv-x="349" 
d="M322 -213q-11 -2 -27 -3.5t-33 -1.5q-155 0 -155 155v491h-85v72h85v126h89v-126h125v-72h-125v-480q0 -53 26 -72.5t76 -19.5h24v-69z" />
    <glyph glyph-name="uni0289" unicode="&#x289;" horiz-adv-x="598" 
d="M510 0h-45q-41 0 -41 36v40q-18 -35 -57 -62t-103 -27q-85 0 -132 52t-47 147v48h-72v64h72v202h89v-202h247v202h89v-202h72v-64h-72v-234zM174 193q0 -65 25.5 -97t79.5 -32q65 0 102.5 44.5t39.5 125.5h-247v-41z" />
    <glyph glyph-name="uni028A" unicode="&#x28a;" horiz-adv-x="592" 
d="M537 429h-102q45 -36 73 -89t28 -120q0 -54 -17.5 -97t-49 -73.5t-76 -46.5t-97.5 -16t-97.5 16t-76 46.5t-49 73.5t-17.5 97q0 67 28 120t72 89h-101v71h198v-67q-48 -36 -76 -86t-28 -117q0 -81 41 -123.5t106 -42.5t106 42.5t41 123.5q0 67 -28 117t-76 86v67h198v-71
z" />
    <glyph glyph-name="uni028B" unicode="&#x28b;" horiz-adv-x="561" 
d="M163 215q0 -35 4.5 -63t16 -47.5t32 -30t53.5 -10.5q40 0 69 18.5t47.5 49.5t27.5 70.5t9 80.5q0 34 -4.5 62t-16.5 47.5t-33 30t-54 10.5v68q13 3 30 3q49 0 81.5 -18t52 -48t27.5 -68t8 -78q0 -65 -16.5 -120.5t-48 -96.5t-77.5 -64.5t-104 -23.5q-193 0 -193 200v313
h89v-285z" />
    <glyph glyph-name="uni028C" unicode="&#x28c;" horiz-adv-x="508" 
d="M211 500h89l198 -500h-94l-151 395l-153 -395h-90z" />
    <glyph glyph-name="uni0292" unicode="&#x292;" horiz-adv-x="495" 
d="M33 500h391v-74l-195 -220q107 -2 166.5 -55.5t59.5 -150.5q0 -50 -17 -91t-49 -70t-77.5 -45t-102.5 -16q-59 0 -109 14t-88 41l37 66q38 -23 75.5 -33.5t83.5 -10.5q75 0 115 38.5t40 106.5q0 69 -43.5 103t-123.5 34h-64v67l195 224h-294v72z" />
    <glyph glyph-name="uni0294" unicode="&#x294;" horiz-adv-x="423" 
d="M219 0h-89v244q0 33 4.5 57t13.5 42.5t23.5 33.5t35.5 29l33 23q34 23 51.5 47.5t17.5 62.5q0 48 -33 76t-87 28q-45 0 -82 -12.5t-76 -39.5l-41 59q44 34 96 52t110 18q44 0 81.5 -12.5t64.5 -36t42.5 -57t15.5 -75.5q0 -51 -23 -89t-65 -67l-41 -28
q-31 -22 -41.5 -48.5t-10.5 -68.5v-238z" />
    <glyph glyph-name="uni0295" unicode="&#x295;" horiz-adv-x="423" 
d="M292 0h-89v236q0 42 -11.5 68t-40.5 46l-41 29q-42 29 -64.5 68t-22.5 89q0 44 16.5 78t44.5 57.5t66 36t81 12.5q57 0 108 -18t93 -52l-39 -59q-35 26 -74.5 39t-87.5 13q-54 0 -85.5 -29t-31.5 -77q0 -38 19.5 -63.5t49.5 -45.5l34 -22q21 -14 35.5 -29t23.5 -33
t12.5 -41t3.5 -53v-250z" />
    <glyph glyph-name="uni029D" unicode="&#x29d;" horiz-adv-x="245" 
d="M295 -97l-33 -44q-50 41 -100 61q-3 -138 -136 -138q-57 0 -87 27.5t-30 67.5q0 27 11.5 48t31.5 35.5t47 21.5t59 7h20v511h89v-527q35 -11 67 -29t61 -41zM76 700h93v-100h-93v100zM-25 -123q0 -20 12 -32t35 -12q30 0 43.5 22.5t13.5 54.5v28h-23q-35 0 -58 -14.5
t-23 -46.5z" />
    <glyph glyph-name="uni02B0" unicode="&#x2b0;" horiz-adv-x="401" 
d="M344 372h-74v171q0 35 -13.5 54t-45.5 19q-37 0 -58 -25.5t-21 -71.5v-147h-74v411h74v-163q14 25 42 41.5t63 16.5q50 0 78.5 -29.5t28.5 -85.5v-191z" />
    <glyph glyph-name="uni02B7" unicode="&#x2b7;" horiz-adv-x="494" 
d="M397 372h-88l-63 215l-62 -215h-86l-87 298h75l58 -237l62 214h85l62 -218l58 241h72z" />
    <glyph glyph-name="uni02B9" unicode="&#x2b9;" horiz-adv-x="295" 
d="M140 690h111l-117 -232h-90z" />
    <glyph glyph-name="uni02BA" unicode="&#x2ba;" horiz-adv-x="472" 
d="M140 690h111l-117 -232h-90zM317 690h111l-117 -232h-90z" />
    <glyph glyph-name="uni02BB" unicode="&#x2bb;" horiz-adv-x="218" 
d="M161 718q-17 -30 -28.5 -66.5t-11.5 -78.5h41v-114h-106v68q0 63 10.5 117.5t36.5 99.5z" />
    <glyph glyph-name="uni02BC" unicode="&#x2bc;" horiz-adv-x="213" 
d="M65 478q13 26 20.5 54t7.5 56h-37v102h101v-61q0 -54 -9.5 -97.5t-25.5 -77.5z" />
    <glyph glyph-name="uni02BD" unicode="&#x2bd;" horiz-adv-x="217" 
d="M104 405q-27 47 -37.5 100.5t-10.5 113.5v71h105v-114h-43q0 -72 40 -146z" />
    <glyph glyph-name="uni02BE" unicode="&#x2be;" horiz-adv-x="262" 
d="M57 398v58q43 0 70 22.5t27 70.5q0 43 -27 64t-70 21v56h12q33 0 61 -9t48.5 -27t32.5 -44t12 -59q0 -35 -12 -63t-32.5 -48t-48.5 -31t-60 -11h-13z" />
    <glyph glyph-name="uni02C0" unicode="&#x2c0;" horiz-adv-x="317" 
d="M183 372h-79v137q24 1 45.5 7t38 16.5t26.5 26t10 35.5q0 31 -20 46t-52 15t-59.5 -10.5t-51.5 -27.5l-32 52q29 23 68 37t84 14q63 0 102 -30.5t39 -87.5q0 -26 -9.5 -47.5t-25.5 -37.5t-37.5 -26.5t-46.5 -16.5v-102z" />
    <glyph glyph-name="circumflex" unicode="&#x2c6;" horiz-adv-x="500" 
d="M251 678l-81 -91h-90l127 160h87l127 -160h-92z" />
    <glyph glyph-name="caron" unicode="&#x2c7;" horiz-adv-x="500" 
d="M172 747l79 -92l80 92h90l-127 -160h-87l-127 160h92z" />
    <glyph glyph-name="uni02C9" unicode="&#x2c9;" horiz-adv-x="500" 
d="M86 617v67h327v-67h-327z" />
    <glyph glyph-name="uni02CB" unicode="&#x2cb;" horiz-adv-x="500" 
d="M353 587h-89l-117 159h110z" />
    <glyph glyph-name="breve" unicode="&#x2d8;" horiz-adv-x="500" 
d="M250 651q69 0 69 69v9h74v-10q0 -60 -38.5 -96.5t-104.5 -36.5t-104.5 36.5t-38.5 96.5v10h74v-9q0 -69 69 -69z" />
    <glyph glyph-name="dotaccent" unicode="&#x2d9;" horiz-adv-x="500" 
d="M204 700h93v-100h-93v100z" />
    <glyph glyph-name="ring" unicode="&#x2da;" horiz-adv-x="500" 
d="M307 678q0 28 -16 43t-41 15t-41 -15t-16 -43t16 -43t41 -15t41 15t16 43zM130 678q0 52 33.5 81t86.5 29t86.5 -29t33.5 -81t-33.5 -81t-86.5 -29t-86.5 29t-33.5 81z" />
    <glyph glyph-name="ogonek" unicode="&#x2db;" horiz-adv-x="500" 
d="M319 0q-38 -24 -64 -53t-26 -67q0 -48 55 -48q26 0 48 8l12 -54q-14 -5 -32 -8t-41 -3q-62 0 -89 26t-27 67q0 40 23 73t67 59h74z" />
    <glyph glyph-name="tilde" unicode="&#x2dc;" horiz-adv-x="500" 
d="M239 623q-17 12 -27.5 17.5t-21.5 5.5q-35 0 -35 -40v-9h-76v10q0 52 25 81t75 29q25 0 42.5 -7t40.5 -24q17 -12 27.5 -17.5t21.5 -5.5q35 0 35 40v9h76v-10q0 -52 -25 -81t-75 -29q-25 0 -42.5 7t-40.5 24z" />
    <glyph glyph-name="hungarumlaut" unicode="&#x2dd;" horiz-adv-x="500" 
d="M158 746h108l-117 -159h-87zM330 746h108l-117 -159h-87z" />
    <glyph glyph-name="gravecomb" unicode="&#x300;" 
d="M103 587h-89l-117 159h110z" />
    <glyph glyph-name="acutecomb" unicode="&#x301;" 
d="M-7 746h110l-117 -159h-89z" />
    <glyph glyph-name="uni0302" unicode="&#x302;" 
d="M0 678l-81 -91h-90l127 160h87l127 -160h-92z" />
    <glyph glyph-name="tildecomb" unicode="&#x303;" 
d="M-11 623q-17 12 -27.5 17.5t-21.5 5.5q-35 0 -35 -40v-9h-76v10q0 52 25 81t75 29q25 0 42.5 -7t40.5 -24q17 -12 27.5 -17.5t21.5 -5.5q35 0 35 40v9h76v-10q0 -52 -25 -81t-75 -29q-25 0 -42.5 7t-40.5 24z" />
    <glyph glyph-name="uni0304" unicode="&#x304;" 
d="M-164 617v67h327v-67h-327z" />
    <glyph glyph-name="uni0306" unicode="&#x306;" 
d="M0 651q69 0 69 69v9h74v-10q0 -60 -38.5 -96.5t-104.5 -36.5t-104.5 36.5t-38.5 96.5v10h74v-9q0 -69 69 -69z" />
    <glyph glyph-name="uni0307" unicode="&#x307;" 
d="M-46 700h93v-100h-93v100z" />
    <glyph glyph-name="uni0308" unicode="&#x308;" 
d="M51 698h91v-98h-91v98zM-142 698h91v-98h-91v98z" />
    <glyph glyph-name="hookabovecomb" unicode="&#x309;" 
d="M12 568h-59v81q29 3 52.5 13t23.5 33q0 36 -44 36q-17 0 -32.5 -4t-29.5 -10l-20 42q41 23 95 23q41 0 70 -20t29 -59q0 -36 -25.5 -55t-59.5 -27v-53z" />
    <glyph glyph-name="uni030A" unicode="&#x30a;" 
d="M57 678q0 28 -16 43t-41 15t-41 -15t-16 -43t16 -43t41 -15t41 15t16 43zM-120 678q0 52 33.5 81t86.5 29t86.5 -29t33.5 -81t-33.5 -81t-86.5 -29t-86.5 29t-33.5 81z" />
    <glyph glyph-name="uni030B" unicode="&#x30b;" 
d="M-92 746h108l-117 -159h-87zM80 746h108l-117 -159h-87z" />
    <glyph glyph-name="uni030C" unicode="&#x30c;" 
d="M-79 747l79 -92l80 92h90l-127 -160h-87l-127 160h92z" />
    <glyph glyph-name="uni030D" unicode="&#x30d;" 
d="M40 575h-81v239h81v-239z" />
    <glyph glyph-name="uni030F" unicode="&#x30f;" 
d="M11 586h-83l-117 160h104zM188 586h-83l-117 160h104z" />
    <glyph glyph-name="uni0311" unicode="&#x311;" 
d="M143 585h-69v9q0 35 -21 54t-53 19t-52.5 -19t-20.5 -54v-9h-70v10q0 61 38.5 97t103.5 36q67 0 105.5 -37.5t38.5 -95.5v-10z" />
    <glyph glyph-name="uni0312" unicode="&#x312;" 
d="M40 793q-12 -23 -19 -51t-7 -48h39v-107h-105v64q0 45 8.5 89.5t25.5 76.5z" />
    <glyph glyph-name="uni0313" unicode="&#x313;" 
d="M60 707q0 -57 -23.5 -89t-83.5 -40l-6 45q27 3 41 14.5t15 35.5h-45v89h102v-55z" />
    <glyph glyph-name="uni0314" unicode="&#x314;" 
d="M54 578q-60 8 -83.5 40t-23.5 89v55h102v-89h-45q1 -24 15 -35.5t41 -14.5z" />
    <glyph glyph-name="uni0315" unicode="&#x315;" 
d="M-41 758h81l-22 -179h-59v179z" />
    <glyph glyph-name="uni031B" unicode="&#x31b;" 
d="M-37 476q26 0 40.5 13.5t14.5 37.5q0 16 -5.5 30.5t-12.5 25.5l57 30q14 -19 23 -41.5t9 -50.5q0 -44 -28.5 -70.5t-81.5 -26.5q-38 0 -67 7v45h51z" />
    <glyph glyph-name="dotbelowcomb" unicode="&#x323;" 
d="M49 -173h-97v96h97v-96z" />
    <glyph glyph-name="uni0324" unicode="&#x324;" 
d="M144 -170h-93v93h93v-93zM-51 -170h-94v93h94v-93z" />
    <glyph glyph-name="uni0325" unicode="&#x325;" 
d="M52 -151q0 25 -15 37.5t-37 12.5t-37 -12.5t-15 -37.5t15 -37.5t37 -12.5t37 12.5t15 37.5zM110 -151q0 -47 -31 -73t-79 -26t-79 26t-31 73t31 72.5t79 25.5t79 -25.5t31 -72.5z" />
    <glyph glyph-name="uni0326" unicode="&#x326;" 
d="M-34 -261q11 23 17 49t6 46h-35v97h92v-60q0 -42 -7.5 -82.5t-22.5 -69.5z" />
    <glyph glyph-name="uni0327" unicode="&#x327;" 
d="M23 0l-16 -55q45 -2 70.5 -22t25.5 -56q0 -41 -34.5 -66.5t-90.5 -25.5q-20 0 -42.5 3.5t-39.5 10.5l16 53q15 -5 31 -7.5t32 -2.5q23 0 38.5 7t15.5 26q0 20 -18.5 27.5t-51.5 7.5h-29l32 119z" />
    <glyph glyph-name="uni0328" unicode="&#x328;" 
d="M69 0q-38 -24 -64 -53t-26 -67q0 -48 55 -48q26 0 48 8l12 -54q-14 -5 -32 -8t-41 -3q-62 0 -89 26t-27 67q0 48 34 86.5t97 66.5z" />
    <glyph glyph-name="uni032D" unicode="&#x32d;" 
d="M170 -226h-87l-84 97l-85 -97h-85l127 160h87z" />
    <glyph glyph-name="uni032E" unicode="&#x32e;" 
d="M143 -78q0 -61 -38.5 -97t-103.5 -36q-67 0 -105.5 37.5t-38.5 95.5v10h69v-9q0 -35 21 -54.5t53 -19.5t52.5 19.5t20.5 54.5v9h70v-10z" />
    <glyph glyph-name="uni0330" unicode="&#x330;" 
d="M171 -83q0 -54 -26 -82t-71 -28q-26 0 -45 9.5t-40 24.5q-17 13 -29 19t-26 6q-21 0 -29 -13t-8 -32v-9h-68v10q0 54 26 82t71 28q26 0 44.5 -9t40.5 -25q17 -12 29 -18.5t26 -6.5q21 0 29 12.5t8 32.5v9h68v-10z" />
    <glyph glyph-name="uni0331" unicode="&#x331;" 
d="M163 -153h-327v62h327v-62z" />
    <glyph glyph-name="uni0332" unicode="&#x332;" 
d="M-249 -138h500v-72h-500v72z" />
    <glyph glyph-name="uni0342" unicode="&#x342;" 
d="M151 587h-68v10q0 34 -22.5 54t-60.5 20t-60.5 -20.5t-22.5 -53.5v-10h-68v8q0 62 42 98.5t109 36.5q34 0 62 -10t48 -28t30.5 -43t10.5 -54v-8z" />
    <glyph glyph-name="uni0344" unicode="&#x344;" 
d="M51 693h93v-93h-93v93zM-145 693h93v-93h-93v93zM123 897l-90 -165h-73l67 165h96z" />
    <glyph glyph-name="uni0345" unicode="&#x345;" 
d="M109 -210q-12 -5 -27 -8t-30 -3q-46 0 -68.5 20t-22.5 65v68h78v-61q0 -18 6.5 -26t23.5 -8q18 0 29 5z" />
    <glyph glyph-name="uni0358" unicode="&#x358;" 
d="M-51 593v114h105v-114h-105z" />
    <glyph glyph-name="uni0374" unicode="&#x374;" horiz-adv-x="295" 
d="M140 690h111l-117 -232h-90z" />
    <glyph glyph-name="uni0375" unicode="&#x375;" horiz-adv-x="295" 
d="M140 0h111l-112 -222h-91z" />
    <glyph glyph-name="uni037E" unicode="&#x37e;" horiz-adv-x="217" 
d="M56 114h105v-71q0 -60 -10.5 -113.5t-37.5 -100.5l-54 25q40 74 40 146h-43v114zM56 386v114h105v-114h-105z" />
    <glyph glyph-name="tonos" unicode="&#x384;" horiz-adv-x="500" 
d="M335 762l-95 -175h-75l72 175h98z" />
    <glyph glyph-name="dieresistonos" unicode="&#x385;" horiz-adv-x="500" 
d="M302 693h93v-93h-93v93zM106 693h93v-93h-93v93zM374 897l-90 -165h-73l67 165h96z" />
    <glyph glyph-name="Alphatonos" unicode="&#x386;" horiz-adv-x="649" 
d="M468 191h-295l-70 -191h-91l264 690h97l264 -690h-99zM201 268h239l-120 323zM186 690l-95 -175h-77l72 175h100z" />
    <glyph glyph-name="anoteleia" unicode="&#x387;" horiz-adv-x="217" 
d="M56 386v114h105v-114h-105z" />
    <glyph glyph-name="Epsilontonos" unicode="&#x388;" horiz-adv-x="719" 
d="M327 308v-229h350v-79h-444v690h444v-79h-350v-224h294v-79h-294zM186 690l-95 -175h-77l72 175h100z" />
    <glyph glyph-name="Etatonos" unicode="&#x389;" horiz-adv-x="849" 
d="M667 0v310h-340v-310h-94v690h94v-301h340v301h94v-690h-94zM186 690l-95 -175h-77l72 175h100z" />
    <glyph glyph-name="Iotatonos" unicode="&#x38a;" horiz-adv-x="415" 
d="M327 0h-94v690h94v-690zM186 690l-95 -175h-77l72 175h100z" />
    <glyph glyph-name="Omicrontonos" unicode="&#x38c;" horiz-adv-x="871" 
d="M263 345q0 -131 60.5 -203t166.5 -72t166.5 72t60.5 203t-60.5 203t-166.5 72t-166.5 -72t-60.5 -203zM165 345q0 82 23 149t65.5 113.5t102.5 72t134 25.5t134 -25.5t102.5 -72t65.5 -113.5t23 -149q0 -83 -23 -149.5t-65.5 -113t-102.5 -72t-134 -25.5t-134 25.5
t-102.5 72t-65.5 113t-23 149.5zM186 690l-95 -175h-77l72 175h100z" />
    <glyph glyph-name="Upsilontonos" unicode="&#x38e;" horiz-adv-x="805" 
d="M544 266v-266h-94v266l-243 424h103l190 -342l189 342h100zM186 690l-95 -175h-77l72 175h100z" />
    <glyph glyph-name="Omegatonos" unicode="&#x38f;" horiz-adv-x="844" 
d="M473 620q-49 0 -89 -14t-68 -44.5t-43 -78.5t-15 -115q0 -107 38 -179.5t110 -118.5v-70h-266v79h146q-26 20 -49 47.5t-40 64t-27 81.5t-10 99q0 81 22.5 143.5t64 104.5t99 64t127.5 22t127.5 -22t98.5 -64t64 -104.5t23 -143.5q0 -54 -10 -99t-27 -81.5t-40 -64
t-50 -47.5h147v-79h-266v70q72 46 110 118.5t38 179.5q0 67 -15 115t-43 78.5t-68 44.5t-89 14zM186 690l-95 -175h-77l72 175h100z" />
    <glyph glyph-name="iotadieresistonos" unicode="&#x390;" horiz-adv-x="273" 
d="M165 500v-364q0 -42 13.5 -54.5t49.5 -12.5h7v-70q-9 -2 -19 -3t-21 -1q-60 0 -89.5 32.5t-29.5 102.5v370h89zM172 693h93v-93h-93v93zM-24 693h93v-93h-93v93zM244 897l-90 -165h-73l67 165h96z" />
    <glyph glyph-name="Alpha" unicode="&#x391;" horiz-adv-x="649" 
d="M468 191h-295l-70 -191h-91l264 690h97l264 -690h-99zM201 268h239l-120 323z" />
    <glyph glyph-name="Beta" unicode="&#x392;" horiz-adv-x="620" 
d="M540 508q0 -53 -23.5 -90.5t-67.5 -59.5q127 -34 127 -162q0 -94 -63 -145t-184 -51h-241v690h218q113 0 173.5 -47.5t60.5 -134.5zM178 79h136q85 0 126.5 27t41.5 92q0 113 -136 113h-168v-232zM178 388h126q72 0 107 25.5t35 85.5q0 57 -35 84.5t-113 27.5h-120v-223z
" />
    <glyph glyph-name="Gamma" unicode="&#x393;" horiz-adv-x="518" 
d="M89 690h410v-79h-316v-611h-94v690z" />
    <glyph glyph-name="uni0394" unicode="&#x394;" horiz-adv-x="640" 
d="M22 0v71l246 619h105l245 -619v-71h-596zM118 79h396l-198 523z" />
    <glyph glyph-name="Epsilon" unicode="&#x395;" horiz-adv-x="574" 
d="M182 308v-229h350v-79h-444v690h444v-79h-350v-224h294v-79h-294z" />
    <glyph glyph-name="Zeta" unicode="&#x396;" horiz-adv-x="597" 
d="M36 75l412 536h-386v79h499v-75l-410 -534h406v-81h-521v75z" />
    <glyph glyph-name="Eta" unicode="&#x397;" horiz-adv-x="704" 
d="M522 0v310h-340v-310h-94v690h94v-301h340v301h94v-690h-94z" />
    <glyph glyph-name="Theta" unicode="&#x398;" horiz-adv-x="762" 
d="M154 345q0 -131 60.5 -203t166.5 -72t166.5 72t60.5 203t-60.5 203t-166.5 72t-166.5 -72t-60.5 -203zM56 345q0 82 23 149t65.5 113.5t102.5 72t134 25.5t134 -25.5t102.5 -72t65.5 -113.5t23 -149q0 -83 -23 -149.5t-65.5 -113t-102.5 -72t-134 -25.5t-134 25.5
t-102.5 72t-65.5 113t-23 149.5zM526 386v-78h-290v78h290z" />
    <glyph glyph-name="Iota" unicode="&#x399;" horiz-adv-x="270" 
d="M182 0h-94v690h94v-690z" />
    <glyph glyph-name="Kappa" unicode="&#x39a;" horiz-adv-x="629" 
d="M294 388l329 -388h-122l-273 329l-46 -46v-283h-94v690h94v-301l295 301h120z" />
    <glyph glyph-name="Lambda" unicode="&#x39b;" horiz-adv-x="643" 
d="M317 589l-213 -589h-92l261 690h97l261 -690h-99z" />
    <glyph glyph-name="Mu" unicode="&#x39c;" horiz-adv-x="835" 
d="M178 540v-540h-90v690h102l229 -413l229 413h99v-690h-90v543l-201 -363h-78z" />
    <glyph glyph-name="Nu" unicode="&#x39d;" horiz-adv-x="705" 
d="M190 690l337 -553v553h90v-690h-102l-337 549v-549h-90v690h102z" />
    <glyph glyph-name="Xi" unicode="&#x39e;" horiz-adv-x="545" 
d="M88 308v79h371v-79h-371zM38 0v79h471v-79h-471zM56 611v79h435v-79h-435z" />
    <glyph glyph-name="Omicron" unicode="&#x39f;" horiz-adv-x="762" 
d="M154 345q0 -131 60.5 -203t166.5 -72t166.5 72t60.5 203t-60.5 203t-166.5 72t-166.5 -72t-60.5 -203zM56 345q0 82 23 149t65.5 113.5t102.5 72t134 25.5t134 -25.5t102.5 -72t65.5 -113.5t23 -149q0 -83 -23 -149.5t-65.5 -113t-102.5 -72t-134 -25.5t-134 25.5
t-102.5 72t-65.5 113t-23 149.5z" />
    <glyph glyph-name="Pi" unicode="&#x3a0;" horiz-adv-x="699" 
d="M612 0h-94v614h-335v-614h-94v690h523v-690z" />
    <glyph glyph-name="Rho" unicode="&#x3a1;" horiz-adv-x="615" 
d="M182 0h-94v690h238q115 0 177 -57t62 -161q0 -103 -62 -161t-177 -58h-144v-253zM182 332h141q72 0 110 33.5t38 106.5t-37.5 106t-110.5 33h-141v-279z" />
    <glyph glyph-name="Sigma" unicode="&#x3a3;" horiz-adv-x="587" 
d="M50 690h490v-79h-382l255 -257l-271 -275h409v-79h-515v76l268 279l-254 259v76z" />
    <glyph glyph-name="Tau" unicode="&#x3a4;" horiz-adv-x="606" 
d="M351 611v-611h-94v611h-237v79h566v-79h-235z" />
    <glyph glyph-name="Upsilon" unicode="&#x3a5;" horiz-adv-x="614" 
d="M353 266v-266h-94v266l-243 424h103l190 -342l189 342h100z" />
    <glyph glyph-name="Phi" unicode="&#x3a6;" horiz-adv-x="806" 
d="M143 362q0 -98 57.5 -147t158.5 -56v403q-101 -8 -158.5 -56t-57.5 -144zM447 0h-88v78q-70 5 -127 25.5t-97.5 55.5t-62.5 85.5t-22 115.5q0 66 22.5 116t63 85.5t97.5 55.5t126 25v68h88v-68q69 -5 126 -25t97.5 -55.5t63 -85.5t22.5 -116q0 -65 -22 -115.5
t-62.5 -85.5t-97.5 -55.5t-127 -25.5v-78zM663 362q0 96 -58 144t-158 56v-403q101 7 158.5 56t57.5 147z" />
    <glyph glyph-name="Chi" unicode="&#x3a7;" horiz-adv-x="638" 
d="M14 0l249 356l-229 334h107l175 -263l184 263h104l-238 -333l258 -357h-108l-203 287l-195 -287h-104z" />
    <glyph glyph-name="Psi" unicode="&#x3a8;" horiz-adv-x="794" 
d="M442 0h-90v187q-140 9 -211 80t-71 208v215h92v-215q0 -98 46 -147.5t143 -57.5v420h92v-420q97 8 143 57.5t46 147.5v215h92v-215q0 -137 -71 -208t-211 -80v-187z" />
    <glyph glyph-name="uni03A9" unicode="&#x3a9;" horiz-adv-x="742" 
d="M371 620q-49 0 -89 -14t-68 -44.5t-43 -78.5t-15 -115q0 -107 38 -179.5t110 -118.5v-70h-266v79h146q-26 20 -49 47.5t-40 64t-27 81.5t-10 99q0 81 22.5 143.5t64 104.5t99 64t127.5 22t127.5 -22t98.5 -64t64 -104.5t23 -143.5q0 -54 -10 -99t-27 -81.5t-40 -64
t-50 -47.5h147v-79h-266v70q72 46 110 118.5t38 179.5q0 67 -15 115t-43 78.5t-68 44.5t-89 14z" />
    <glyph glyph-name="Iotadieresis" unicode="&#x3aa;" horiz-adv-x="270" 
d="M182 0h-94v690h94v-690zM184 878h93v-100h-93v100zM-7 878h93v-100h-93v100z" />
    <glyph glyph-name="Upsilondieresis" unicode="&#x3ab;" horiz-adv-x="614" 
d="M353 266v-266h-94v266l-243 424h103l190 -342l189 342h100zM357 878h93v-100h-93v100zM166 878h93v-100h-93v100z" />
    <glyph glyph-name="alphatonos" unicode="&#x3ac;" horiz-adv-x="614" 
d="M545 -5q-45 0 -78 22.5t-41 76.5q-22 -48 -66.5 -77.5t-102.5 -29.5q-48 0 -86.5 18.5t-66 52t-42 80t-14.5 102.5q0 60 15.5 110.5t44 86.5t69 56t90.5 20q62 0 109 -31.5t70 -91.5q5 16 11 35t13 38l13 37h87l-31 -85q-20 -53 -35 -112.5t-15 -110.5q0 -64 20.5 -93.5
t66.5 -29.5h12v-70q-9 -2 -18.5 -3t-24.5 -1zM278 436q-72 0 -104.5 -53.5t-32.5 -143.5q0 -32 5.5 -63.5t20.5 -56.5t40 -40t64 -15q65 0 103.5 52.5t38.5 143.5q0 40 -10 73t-28 55.5t-43 35t-54 12.5zM414 762l-95 -175h-75l72 175h98z" />
    <glyph glyph-name="epsilontonos" unicode="&#x3ad;" horiz-adv-x="480" 
d="M61 380q0 33 14.5 58t41 41.5t62 25t77.5 8.5q101 0 178 -47l-29 -63q-32 17 -66.5 26t-73.5 9q-50 0 -81.5 -16t-31.5 -49q0 -20 11 -34.5t29 -24t39.5 -14.5t42.5 -5h81v-72h-81q-27 0 -51 -5t-42 -15.5t-28.5 -26.5t-10.5 -38q0 -37 34.5 -56.5t94.5 -19.5
q42 0 82 10.5t72 27.5l29 -63q-34 -22 -85 -36t-104 -14q-46 0 -85 8.5t-68 26t-45.5 44.5t-16.5 65q0 51 32.5 84t86.5 46q-46 12 -77 41.5t-31 77.5zM377 762l-95 -175h-75l72 175h98z" />
    <glyph glyph-name="etatonos" unicode="&#x3ae;" horiz-adv-x="589" 
d="M165 425q23 41 66.5 64.5t104.5 23.5q86 0 131.5 -49t45.5 -144v-530h-89v521q0 64 -26.5 94.5t-83.5 30.5q-66 0 -106.5 -44t-40.5 -125v-267h-89v500h46q41 0 41 -36v-39zM424 762l-95 -175h-75l72 175h98z" />
    <glyph glyph-name="iotatonos" unicode="&#x3af;" horiz-adv-x="273" 
d="M165 500v-364q0 -42 13.5 -54.5t49.5 -12.5h7v-70q-9 -2 -19 -3t-21 -1q-60 0 -89.5 32.5t-29.5 102.5v370h89zM253 762l-95 -175h-75l72 175h98z" />
    <glyph glyph-name="upsilondieresistonos" unicode="&#x3b0;" horiz-adv-x="570" 
d="M285 64q66 0 94 37.5t28 113.5v285h89v-284q0 -114 -53.5 -171.5t-157.5 -57.5t-157.5 57.5t-53.5 171.5v284h89v-285q0 -76 28 -113.5t94 -37.5zM337 693h93v-93h-93v93zM141 693h93v-93h-93v93zM409 897l-90 -165h-73l67 165h96z" />
    <glyph glyph-name="alpha" unicode="&#x3b1;" horiz-adv-x="614" 
d="M545 -5q-45 0 -78 22.5t-41 76.5q-22 -48 -66.5 -77.5t-102.5 -29.5q-48 0 -86.5 18.5t-66 52t-42 80t-14.5 102.5q0 60 15.5 110.5t44 86.5t69 56t90.5 20q62 0 109 -31.5t70 -91.5q5 16 11 35t13 38l13 37h87l-31 -85q-20 -53 -35 -112.5t-15 -110.5q0 -64 20.5 -93.5
t66.5 -29.5h12v-70q-9 -2 -18.5 -3t-24.5 -1zM278 436q-72 0 -104.5 -53.5t-32.5 -143.5q0 -32 5.5 -63.5t20.5 -56.5t40 -40t64 -15q65 0 103.5 52.5t38.5 143.5q0 40 -10 73t-28 55.5t-43 35t-54 12.5z" />
    <glyph glyph-name="beta" unicode="&#x3b2;" horiz-adv-x="597" 
d="M335 -13q-62 0 -104 21.5t-66 59.5v-278h-89v710q0 51 15 93t42.5 71t68 45t91.5 16q45 0 83.5 -12t66 -36t43 -59t15.5 -80q0 -50 -23.5 -91t-73.5 -61q36 -6 63.5 -23t45.5 -41.5t27.5 -55.5t9.5 -65q0 -47 -15 -86t-42.5 -67.5t-67.5 -44.5t-90 -16zM165 219
q0 -33 11.5 -61.5t32 -49.5t49 -32.5t62.5 -11.5q66 0 101.5 38t35.5 102q0 66 -35.5 102t-99.5 36h-73v71h51q53 0 81 31t28 90q0 53 -31 83.5t-86 30.5q-62 0 -94.5 -39t-32.5 -105v-285z" />
    <glyph glyph-name="gamma" unicode="&#x3b3;" horiz-adv-x="511" 
d="M104 500l153 -412l154 412h90l-200 -495v-215h-89v215l-202 495h94z" />
    <glyph glyph-name="delta" unicode="&#x3b4;" horiz-adv-x="576" 
d="M124 597q0 31 14 55t39.5 40t59.5 24.5t75 8.5q51 0 97.5 -12.5t84.5 -38.5l-34 -65q-35 22 -72.5 31.5t-73.5 9.5q-42 0 -71 -12.5t-29 -42.5q0 -13 5 -23t17 -20.5t31.5 -21.5t48.5 -26q57 -29 97.5 -59.5t66 -65t37 -74.5t11.5 -86q0 -50 -17 -92t-48 -73.5t-75.5 -49
t-98.5 -17.5q-55 0 -99.5 18t-76 48.5t-48.5 72t-17 89.5q0 43 14 82t38 71.5t56 57.5t68 40q-42 23 -71 54.5t-29 76.5zM141 217q0 -68 40 -110.5t108 -42.5q69 0 108 43.5t39 112.5q0 77 -39 126t-107 85q-33 -13 -60.5 -35t-47 -49.5t-30.5 -60.5t-11 -69z" />
    <glyph glyph-name="epsilon" unicode="&#x3b5;" horiz-adv-x="480" 
d="M61 380q0 33 14.5 58t41 41.5t62 25t77.5 8.5q101 0 178 -47l-29 -63q-32 17 -66.5 26t-73.5 9q-50 0 -81.5 -16t-31.5 -49q0 -20 11 -34.5t29 -24t39.5 -14.5t42.5 -5h81v-72h-81q-27 0 -51 -5t-42 -15.5t-28.5 -26.5t-10.5 -38q0 -37 34.5 -56.5t94.5 -19.5
q42 0 82 10.5t72 27.5l29 -63q-34 -22 -85 -36t-104 -14q-46 0 -85 8.5t-68 26t-45.5 44.5t-16.5 65q0 51 32.5 84t86.5 46q-46 12 -77 41.5t-31 77.5z" />
    <glyph glyph-name="zeta" unicode="&#x3b6;" horiz-adv-x="428" 
d="M446 -88q0 -45 -24.5 -78t-61.5 -55l-48 56q22 14 34.5 31t12.5 39q0 16 -7.5 27t-22 19t-35 15.5t-46.5 15.5q-49 16 -86.5 36.5t-62.5 50t-38 68t-13 90.5q0 59 22 116.5t59.5 111t86 101.5t102.5 89h-245v72h350v-68q-54 -39 -105 -87t-90 -102t-63 -112.5t-24 -119.5
q0 -36 8 -63.5t25.5 -47.5t44 -35t62.5 -27q38 -12 68.5 -24.5t52 -28.5t33 -37.5t11.5 -52.5z" />
    <glyph glyph-name="eta" unicode="&#x3b7;" horiz-adv-x="589" 
d="M165 425q23 41 66.5 64.5t104.5 23.5q86 0 131.5 -49t45.5 -144v-530h-89v521q0 64 -26.5 94.5t-83.5 30.5q-66 0 -106.5 -44t-40.5 -125v-267h-89v500h46q41 0 41 -36v-39z" />
    <glyph glyph-name="theta" unicode="&#x3b8;" horiz-adv-x="560" 
d="M280 648q-65 0 -101.5 -64t-40.5 -188h284q-4 124 -40.5 188t-101.5 64zM280 725q113 0 172 -95t59 -274q0 -177 -59.5 -273t-171.5 -96t-171.5 96t-59.5 273q0 179 59 274t172 95zM280 64q65 0 102 67.5t41 195.5h-286q4 -128 41 -195.5t102 -67.5z" />
    <glyph glyph-name="iota" unicode="&#x3b9;" horiz-adv-x="273" 
d="M165 500v-364q0 -42 13.5 -54.5t49.5 -12.5h7v-70q-9 -2 -19 -3t-21 -1q-60 0 -89.5 32.5t-29.5 102.5v370h89z" />
    <glyph glyph-name="kappa" unicode="&#x3ba;" horiz-adv-x="525" 
d="M166 276l215 224h110l-211 -217l241 -283h-115l-187 228l-53 -53v-175h-88v500h88v-224z" />
    <glyph glyph-name="lambda" unicode="&#x3bb;" horiz-adv-x="507" 
d="M10 0l204 494l-25 60q-10 25 -20.5 42.5t-24 28.5t-31.5 16t-45 5h-31v69q11 2 24 3.5t29 1.5q38 0 65 -10t47.5 -29.5t36 -48t30.5 -65.5l228 -567h-94l-148 407l-153 -407h-92z" />
    <glyph glyph-name="uni03BC" unicode="&#x3bc;" horiz-adv-x="604" 
d="M519 -3q-45 0 -66.5 19t-25.5 66q-22 -44 -63.5 -69.5t-92.5 -25.5q-33 0 -60.5 12t-43.5 34v-243h-89v710h89v-305q0 -66 30 -98.5t82 -32.5q24 0 49 9t44.5 27t32 45.5t12.5 64.5v290h89v-394q0 -26 9.5 -34.5t38.5 -8.5h12v-60q-9 -3 -23 -4.5t-24 -1.5z" />
    <glyph glyph-name="nu" unicode="&#x3bd;" horiz-adv-x="508" 
d="M104 500l151 -406l153 406h90l-199 -500h-89l-200 500h94z" />
    <glyph glyph-name="xi" unicode="&#x3be;" horiz-adv-x="438" 
d="M363 -95q0 16 -8 27t-23 19.5t-36 16t-47 15.5q-56 18 -94.5 38.5t-63.5 46t-36 58t-11 73.5q0 66 36.5 110.5t96.5 61.5q-50 18 -80 62.5t-30 100.5q0 45 17.5 80.5t47.5 60t69 37.5t83 13q47 0 87 -11t72 -34l-33 -63q-52 31 -116 31q-63 0 -99.5 -31.5t-36.5 -86.5
q0 -60 34.5 -92.5t95.5 -32.5h82v-72h-82q-73 0 -112 -33.5t-39 -95.5q0 -30 8.5 -52.5t26.5 -40t45.5 -30.5t64.5 -25q39 -12 70 -24.5t52.5 -29t33.5 -38t12 -52.5q0 -44 -24 -77t-62 -56l-48 56q22 14 34.5 31t12.5 39z" />
    <glyph glyph-name="omicron" unicode="&#x3bf;" horiz-adv-x="586" 
d="M538 250q0 -59 -18 -107.5t-50 -83t-77 -53.5t-100 -19t-100 19t-77.5 53.5t-50 83t-17.5 107.5t17.5 107.5t50 83t77.5 53.5t100 19t100 -19t77 -53.5t50 -83t18 -107.5zM445 250q0 89 -40 137.5t-112 48.5t-112 -48.5t-40 -137.5t40 -137.5t112 -48.5t112 48.5
t40 137.5z" />
    <glyph glyph-name="pi" unicode="&#x3c0;" horiz-adv-x="621" 
d="M497 428v-292q0 -42 13.5 -54.5t49.5 -12.5h7v-70q-9 -2 -19 -3t-21 -1q-60 0 -89.5 32.5t-29.5 102.5v298h-213v-428h-89v428h-82v72h557v-72h-84z" />
    <glyph glyph-name="rho" unicode="&#x3c1;" horiz-adv-x="600" 
d="M552 260q0 -56 -14.5 -105.5t-43 -86.5t-71 -59t-99.5 -22q-47 0 -89.5 18t-71.5 63v-278h-89v447q0 63 16.5 114t47.5 87t76.5 55.5t102.5 19.5t101 -19.5t74 -54t45 -80.5t15 -99zM161 244q0 -40 9.5 -73t28.5 -57t47 -37t65 -13q75 0 111.5 52t36.5 139q0 39 -8.5 72
t-26.5 57t-45 38t-63 14q-39 0 -68.5 -16.5t-48.5 -43.5t-28.5 -61.5t-9.5 -70.5z" />
    <glyph glyph-name="sigma1" unicode="&#x3c2;" horiz-adv-x="477" 
d="M248 -18q-109 35 -154.5 102.5t-45.5 166.5q0 60 18 108t51 82.5t80 53t104 18.5q54 0 90.5 -12.5t65.5 -35.5l-36 -62q-20 14 -48 23.5t-63 9.5q-82 0 -125.5 -48.5t-43.5 -135.5q0 -78 32.5 -125.5t107.5 -71.5q38 -12 68.5 -24.5t52 -29t33 -38t11.5 -51.5
q0 -44 -24 -77t-62 -56l-48 56q22 14 34.5 31t12.5 39q0 31 -29 45.5t-82 31.5z" />
    <glyph glyph-name="sigma" unicode="&#x3c3;" horiz-adv-x="583" 
d="M532 243q0 -60 -17.5 -107.5t-49.5 -80.5t-76.5 -50.5t-99.5 -17.5q-54 0 -99 17.5t-77 50.5t-49.5 80.5t-17.5 107.5q0 55 15.5 102t50 81.5t89.5 54t133 19.5h223v-69h-119q48 -33 71 -83.5t23 -104.5zM289 64q71 0 110.5 47.5t39.5 132.5q0 59 -23.5 108.5t-71.5 75.5
h-40q-45 0 -76 -14.5t-51 -39t-29 -58t-9 -72.5q0 -86 40 -133t110 -47z" />
    <glyph glyph-name="tau" unicode="&#x3c4;" horiz-adv-x="437" 
d="M24 428v72h391v-72h-170v-284q0 -44 20.5 -59t69.5 -15h18v-69q-10 -2 -22 -4t-27 -2q-42 0 -70.5 10.5t-45.5 31.5t-24.5 53.5t-7.5 76.5v261h-132z" />
    <glyph glyph-name="upsilon" unicode="&#x3c5;" horiz-adv-x="570" 
d="M285 64q66 0 94 37.5t28 113.5v285h89v-284q0 -114 -53.5 -171.5t-157.5 -57.5t-157.5 57.5t-53.5 171.5v284h89v-285q0 -76 28 -113.5t94 -37.5z" />
    <glyph glyph-name="phi" unicode="&#x3c6;" horiz-adv-x="740" 
d="M48 259q0 78 36 143t101 108l51 -60q-46 -33 -71.5 -81.5t-25.5 -107.5q0 -47 14 -82t38.5 -59.5t59 -38.5t76.5 -18v283q0 76 42 119.5t114 43.5q52 0 91 -20.5t65 -55t39.5 -80t13.5 -94.5q0 -65 -21.5 -113.5t-59 -81.5t-88 -51.5t-108.5 -23.5v-199h-88v200
q-58 4 -108.5 22t-88.5 51t-60 81.5t-22 114.5zM601 259q0 34 -7.5 66.5t-22.5 57.5t-37 40t-51 15q-34 0 -51 -24.5t-17 -68.5v-282q42 4 76 18.5t58.5 38.5t38 58.5t13.5 80.5z" />
    <glyph glyph-name="chi" unicode="&#x3c7;" horiz-adv-x="489" 
d="M3 433v70q7 2 17.5 3t20.5 1q33 0 55.5 -10t40 -29t32 -47t30.5 -64l55 -124l134 267h89l-185 -346l94 -193q13 -27 23.5 -46.5t21.5 -32.5t24.5 -19t32.5 -6h19v-70q-8 -2 -18 -3t-19 -1q-32 0 -55 10t-41 29t-33 47t-31 65l-61 138l-141 -282h-89l191 361l-89 184
q-11 22 -20.5 40.5t-20.5 31t-25 19.5t-33 7h-19z" />
    <glyph glyph-name="psi" unicode="&#x3c8;" horiz-adv-x="766" 
d="M694 500v-226q0 -138 -67.5 -207t-199.5 -78v-199h-88v199q-133 9 -200 78t-67 207v226h89v-226q0 -95 41 -148t137 -63v557h88v-557q96 10 137 63t41 148v226h89z" />
    <glyph glyph-name="omega" unicode="&#x3c9;" horiz-adv-x="778" 
d="M433 350v-135q0 -26 4.5 -52.5t15.5 -48.5t30.5 -36t48.5 -14q31 0 51.5 15.5t32.5 39.5t17 54.5t5 61.5q0 63 -21 122.5t-53 107.5l73 44q41 -57 66.5 -129t25.5 -147q0 -51 -10.5 -95.5t-33 -78t-58 -53t-84.5 -19.5q-57 0 -98 33.5t-56 86.5q-15 -53 -56 -86.5
t-98 -33.5q-49 0 -84.5 19.5t-58 53t-33 78t-10.5 95.5q0 75 25.5 147t66.5 129l73 -44q-32 -48 -53 -107.5t-21 -122.5q0 -31 5 -61.5t17 -54.5t32.5 -39.5t51.5 -15.5q29 0 48 14t30.5 36t16 48.5t4.5 52.5v135h88z" />
    <glyph glyph-name="iotadieresis" unicode="&#x3ca;" horiz-adv-x="273" 
d="M165 500v-364q0 -42 13.5 -54.5t49.5 -12.5h7v-70q-9 -2 -19 -3t-21 -1q-60 0 -89.5 32.5t-29.5 102.5v370h89zM172 698h91v-98h-91v98zM-21 698h91v-98h-91v98z" />
    <glyph glyph-name="upsilondieresis" unicode="&#x3cb;" horiz-adv-x="570" 
d="M285 64q66 0 94 37.5t28 113.5v285h89v-284q0 -114 -53.5 -171.5t-157.5 -57.5t-157.5 57.5t-53.5 171.5v284h89v-285q0 -76 28 -113.5t94 -37.5zM336 698h91v-98h-91v98zM143 698h91v-98h-91v98z" />
    <glyph glyph-name="omicrontonos" unicode="&#x3cc;" horiz-adv-x="586" 
d="M538 250q0 -59 -18 -107.5t-50 -83t-77 -53.5t-100 -19t-100 19t-77.5 53.5t-50 83t-17.5 107.5t17.5 107.5t50 83t77.5 53.5t100 19t100 -19t77 -53.5t50 -83t18 -107.5zM445 250q0 89 -40 137.5t-112 48.5t-112 -48.5t-40 -137.5t40 -137.5t112 -48.5t112 48.5
t40 137.5zM417 762l-95 -175h-75l72 175h98z" />
    <glyph glyph-name="upsilontonos" unicode="&#x3cd;" horiz-adv-x="570" 
d="M285 64q66 0 94 37.5t28 113.5v285h89v-284q0 -114 -53.5 -171.5t-157.5 -57.5t-157.5 57.5t-53.5 171.5v284h89v-285q0 -76 28 -113.5t94 -37.5zM406 762l-95 -175h-75l72 175h98z" />
    <glyph glyph-name="omegatonos" unicode="&#x3ce;" horiz-adv-x="778" 
d="M433 350v-135q0 -26 4.5 -52.5t15.5 -48.5t30.5 -36t48.5 -14q31 0 51.5 15.5t32.5 39.5t17 54.5t5 61.5q0 63 -21 122.5t-53 107.5l73 44q41 -57 66.5 -129t25.5 -147q0 -51 -10.5 -95.5t-33 -78t-58 -53t-84.5 -19.5q-57 0 -98 33.5t-56 86.5q-15 -53 -56 -86.5
t-98 -33.5q-49 0 -84.5 19.5t-58 53t-33 78t-10.5 95.5q0 75 25.5 147t66.5 129l73 -44q-32 -48 -53 -107.5t-21 -122.5q0 -31 5 -61.5t17 -54.5t32.5 -39.5t51.5 -15.5q29 0 48 14t30.5 36t16 48.5t4.5 52.5v135h88zM523 762l-95 -175h-75l72 175h98z" />
    <glyph glyph-name="uni03D0" unicode="&#x3d0;" horiz-adv-x="596" 
d="M403 386q36 -6 63 -23t45.5 -41.5t28 -55.5t9.5 -65q0 -48 -17.5 -87t-49 -67.5t-75 -44t-95.5 -15.5q-70 0 -119 26t-80.5 72.5t-46 110.5t-14.5 141t15.5 147t47.5 123.5t81 85t117 31.5q40 0 74.5 -12t59.5 -35.5t39 -57.5t14 -78q0 -52 -23 -92.5t-74 -62.5zM235 342
v71h63q54 0 82 31t28 90q0 54 -26.5 84t-75.5 30q-45 0 -76 -26t-49.5 -69.5t-27 -99.5t-8.5 -116q0 -58 8.5 -108t28.5 -86.5t53 -57.5t82 -21q63 0 101 36t38 104q0 66 -35.5 102t-101.5 36h-84z" />
    <glyph glyph-name="uni03D1" unicode="&#x3d1;" horiz-adv-x="584" 
d="M188 196q0 -66 24.5 -99t86.5 -33q44 0 72.5 26t45.5 67.5t23.5 93.5t6.5 105h-112q-48 0 -91 12.5t-74.5 37t-50 61t-18.5 83.5q0 40 14 72.5t38.5 55t59.5 35t77 12.5q63 0 109 -28t76 -77t44.5 -116.5t14.5 -145.5q0 -76 -12.5 -143.5t-40.5 -118t-74.5 -80
t-113.5 -29.5q-93 0 -143.5 50t-50.5 153v23q0 38 -13 52.5t-47 14.5h-11v68q8 2 18 3t24 1q57 0 87.5 -33.5t30.5 -99.5v-23zM443 425q-5 45 -16 86t-30 72t-47 49t-66 18q-42 0 -68.5 -26t-26.5 -73q0 -62 46.5 -94t120.5 -32h87z" />
    <glyph glyph-name="uni03D2" unicode="&#x3d2;" horiz-adv-x="719" 
d="M353 0h-94v266l-243 424h103l190 -342l143 254q12 22 25.5 40.5t30 31.5t37.5 20.5t49 7.5q54 0 87 -29t33 -80q0 -17 -2.5 -35t-5.5 -30l-70 12q4 17 4 37q0 23 -13 36.5t-36 13.5q-22 0 -35 -13.5t-27 -37.5l-176 -310v-266z" />
    <glyph glyph-name="uni03D3" unicode="&#x3d3;" horiz-adv-x="910" 
d="M544 0h-94v266l-243 424h103l190 -342l143 254q12 22 25.5 40.5t30 31.5t37.5 20.5t49 7.5q54 0 87 -29t33 -80q0 -17 -2.5 -35t-5.5 -30l-70 12q4 17 4 37q0 23 -13 36.5t-36 13.5q-22 0 -35 -13.5t-27 -37.5l-176 -310v-266zM186 690l-95 -175h-77l72 175h100z" />
    <glyph glyph-name="uni03D4" unicode="&#x3d4;" horiz-adv-x="719" 
d="M353 0h-94v266l-243 424h103l190 -342l143 254q12 22 25.5 40.5t30 31.5t37.5 20.5t49 7.5q54 0 87 -29t33 -80q0 -17 -2.5 -35t-5.5 -30l-70 12q4 17 4 37q0 23 -13 36.5t-36 13.5q-22 0 -35 -13.5t-27 -37.5l-176 -310v-266zM371 878h93v-100h-93v100zM180 878h93v-100
h-93v100z" />
    <glyph glyph-name="uni03D5" unicode="&#x3d5;" horiz-adv-x="698" 
d="M135 249q0 -85 45.5 -133t129.5 -57v381q-84 -9 -129.5 -57.5t-45.5 -133.5zM388 717v-207q59 -5 107.5 -25t83.5 -53.5t54 -79.5t19 -103t-19 -103t-54 -79t-83.5 -53t-107.5 -25v-199h-78v199q-59 5 -107.5 25t-83.5 53t-54 79t-19 103t19 103t54 79.5t83.5 53.5
t107.5 25v207h78zM563 249q0 85 -45.5 133.5t-129.5 57.5v-381q84 9 129.5 57t45.5 133z" />
    <glyph glyph-name="uni03D6" unicode="&#x3d6;" horiz-adv-x="783" 
d="M457 500q70 0 122.5 -19t87.5 -53.5t52.5 -84t17.5 -110.5q0 -51 -10.5 -95.5t-33 -78t-58 -53t-84.5 -19.5q-57 0 -98 33.5t-56 86.5q-15 -53 -56 -86.5t-98 -33.5q-48 0 -83 18t-58 47.5t-34 67t-11 77.5q0 36 7.5 70.5t20 64.5t29.5 55.5t36 43.5h-124v69h431z
M441 215q0 -26 4.5 -52.5t15.5 -48.5t30.5 -36t48.5 -14q31 0 51.5 15.5t32.5 39.5t17 54.5t5 61.5q0 100 -54 146.5t-157 46.5h-200q-20 -19 -36 -43.5t-27.5 -52t-17.5 -56t-6 -55.5q0 -29 5 -57t17 -50t32.5 -36t51.5 -14q29 0 48 14t30.5 36t16 48.5t4.5 52.5v101h88
v-101z" />
    <glyph glyph-name="uni03D7" unicode="&#x3d7;" horiz-adv-x="581" 
d="M575 -24q0 -101 -47.5 -147t-131.5 -46q-26 0 -50.5 4.5t-41.5 10.5l13 68q16 -5 33.5 -7.5t37.5 -2.5q57 0 81.5 31t24.5 88v20q-64 8 -93 50t-29 109q0 48 11 97.5t30 97.5l-281 -349h-84q15 33 29.5 70.5t26.5 77.5t19 82t7 83q0 57 -20 87.5t-71 30.5h-17v71
q9 2 21 2.5t23 0.5q39 0 66 -12.5t43.5 -34.5t24 -52t7.5 -65q0 -45 -12.5 -96.5t-32.5 -99.5l287 355h81q-14 -32 -28.5 -69t-26 -77.5t-19 -82.5t-7.5 -83q0 -63 24 -94t78 -31h24v-87z" />
    <glyph glyph-name="uni0400" unicode="&#x400;" horiz-adv-x="577" 
d="M185 308v-229h350v-79h-444v690h444v-79h-350v-224h294v-79h-294zM368 760h-98l-130 128h117z" />
    <glyph glyph-name="uni0401" unicode="&#x401;" horiz-adv-x="577" 
d="M185 308v-229h350v-79h-444v690h444v-79h-350v-224h294v-79h-294zM370 878h93v-100h-93v100zM179 878h93v-100h-93v100z" />
    <glyph glyph-name="uni0402" unicode="&#x402;" horiz-adv-x="728" 
d="M431 343q-30 0 -67.5 -4.5t-68.5 -13.5v-325h-93v611h-182v79h506v-79h-231v-207q32 8 72.5 14t75.5 6q117 0 180 -57.5t63 -160.5q0 -47 -15 -85.5t-42 -66.5t-64.5 -43.5t-83.5 -15.5q-34 0 -62 5v70h21q75 0 113.5 32t38.5 103q0 72 -43 105t-118 33z" />
    <glyph glyph-name="uni0403" unicode="&#x403;" horiz-adv-x="521" 
d="M91 690h410v-79h-316v-611h-94v690zM368 888h117l-130 -128h-98z" />
    <glyph glyph-name="uni0404" unicode="&#x404;" horiz-adv-x="626" 
d="M481 308h-328q10 -114 69.5 -176t159.5 -62q95 0 160 53l44 -70q-39 -33 -92.5 -50.5t-116.5 -17.5q-75 0 -134.5 25t-101 72t-63.5 114t-22 151q0 83 22.5 149t65 112.5t103 71.5t136.5 25q117 0 196 -62l-43 -70q-33 24 -69 35.5t-80 11.5q-103 0 -163.5 -61
t-69.5 -172h327v-79z" />
    <glyph glyph-name="uni0405" unicode="&#x405;" horiz-adv-x="595" 
d="M311 623q-69 0 -113 -26t-44 -85q0 -35 21 -61.5t78 -42.5l127 -36q36 -10 66 -24.5t51.5 -36t33.5 -50.5t12 -68q0 -46 -17 -84t-49 -65.5t-79.5 -43t-108.5 -15.5q-72 0 -137.5 22t-113.5 64l46 67q45 -35 94 -53t106 -18q76 0 120 30t44 90q0 45 -26 68t-76 37
l-130 35q-78 21 -118 65.5t-40 113.5q0 47 18 84t50.5 62.5t77.5 39t99 13.5q60 0 119 -16.5t104 -50.5l-40 -66q-74 51 -175 51z" />
    <glyph glyph-name="uni0406" unicode="&#x406;" horiz-adv-x="276" 
d="M185 0h-94v690h94v-690z" />
    <glyph glyph-name="uni0407" unicode="&#x407;" horiz-adv-x="276" 
d="M185 0h-94v690h94v-690zM187 878h93v-100h-93v100zM-4 878h93v-100h-93v100z" />
    <glyph glyph-name="uni0408" unicode="&#x408;" horiz-adv-x="513" 
d="M62 116q34 -26 68.5 -36.5t73.5 -10.5q67 0 97.5 39t30.5 118v464h94v-465q0 -115 -58 -177.5t-167 -62.5q-56 0 -104.5 19t-78.5 45z" />
    <glyph glyph-name="uni0409" unicode="&#x409;" horiz-adv-x="983" 
d="M570 335v-256h131q72 0 110 31t38 97t-38 97t-110 31h-131zM226 690h344v-276h134q116 0 177.5 -52t61.5 -155t-59 -155t-175 -52h-231v614h-170q-11 -165 -31 -282t-50.5 -191.5t-74 -109t-101.5 -34.5q-18 0 -31 3v79h6q43 0 74.5 28.5t54 90t37.5 158t26 231.5z" />
    <glyph glyph-name="uni040A" unicode="&#x40a;" horiz-adv-x="1014" 
d="M185 324v-324h-94v690h94v-287h320v287h92v-287h132q119 0 182 -50.5t63 -151.5q0 -100 -60.5 -150.5t-179.5 -50.5h-229v324h-320zM597 324v-245h129q75 0 114.5 29.5t39.5 92.5q0 64 -39.5 93.5t-114.5 29.5h-129z" />
    <glyph glyph-name="uni040B" unicode="&#x40b;" horiz-adv-x="742" 
d="M202 0v611h-182v79h506v-79h-231v-209q39 11 78.5 16.5t75.5 5.5q110 0 167.5 -55t57.5 -159v-210h-94v197q0 77 -34.5 111t-112.5 34q-77 0 -138 -18v-324h-93z" />
    <glyph glyph-name="uni040C" unicode="&#x40c;" horiz-adv-x="628" 
d="M91 690h94v-303h44q36 0 60.5 3.5t42 13.5t30 27t24.5 44l94 215h103l-116 -247q-17 -36 -36.5 -56.5t-51.5 -31.5q36 -12 59.5 -35.5t43.5 -64.5l121 -255h-110l-96 217q-13 28 -26 47t-30.5 29.5t-42 15t-58.5 4.5h-55v-313h-94v690zM385 888h117l-130 -128h-98z" />
    <glyph glyph-name="uni040D" unicode="&#x40d;" horiz-adv-x="715" 
d="M91 690h90v-552l353 552h90v-690h-90v551l-353 -551h-90v690zM417 760h-98l-130 128h117z" />
    <glyph glyph-name="uni040E" unicode="&#x40e;" horiz-adv-x="602" 
d="M114 690l197 -446l186 446h95l-239 -551q-16 -38 -33.5 -66.5t-38.5 -48t-47.5 -29.5t-60.5 -10q-29 0 -58 8.5t-52 22.5l32 71q35 -19 77 -19q33 0 54 17t40 55l-252 550h100zM158 894h75v-9q0 -31 20 -48t54 -17t54 17t20 48v9h75v-11q0 -61 -40 -95t-109 -34t-109 34
t-40 95v11z" />
    <glyph glyph-name="uni040F" unicode="&#x40f;" horiz-adv-x="700" 
d="M91 690h94v-611h330v611h94v-690h-216v-163h-86v163h-216v690z" />
    <glyph glyph-name="uni0410" unicode="&#x410;" horiz-adv-x="649" 
d="M468 191h-295l-70 -191h-91l264 690h97l264 -690h-99zM201 268h239l-120 323z" />
    <glyph glyph-name="uni0411" unicode="&#x411;" horiz-adv-x="613" 
d="M90 690h435v-79h-342v-207h151q116 0 176.5 -51t60.5 -151q0 -99 -59.5 -150.5t-177.5 -51.5h-244v690zM183 325v-246h148q146 0 146 123t-146 123h-148z" />
    <glyph glyph-name="uni0412" unicode="&#x412;" horiz-adv-x="623" 
d="M543 508q0 -53 -23.5 -90.5t-67.5 -59.5q127 -34 127 -162q0 -94 -63 -145t-184 -51h-241v690h218q113 0 173.5 -47.5t60.5 -134.5zM181 79h136q85 0 126.5 27t41.5 92q0 113 -136 113h-168v-232zM181 388h126q72 0 107 25.5t35 85.5q0 57 -35 84.5t-113 27.5h-120v-223z
" />
    <glyph glyph-name="uni0413" unicode="&#x413;" horiz-adv-x="521" 
d="M91 690h410v-79h-316v-611h-94v690z" />
    <glyph glyph-name="uni0414" unicode="&#x414;" horiz-adv-x="714" 
d="M218 690h382v-611h86v-242h-86v163h-492v-163h-86v242h65q59 77 87.5 210.5t39.5 328.5zM508 79v535h-207q-11 -195 -39 -327.5t-79 -207.5h325z" />
    <glyph glyph-name="uni0415" unicode="&#x415;" horiz-adv-x="577" 
d="M185 308v-229h350v-79h-444v690h444v-79h-350v-224h294v-79h-294z" />
    <glyph glyph-name="uni0416" unicode="&#x416;" horiz-adv-x="927" 
d="M510 690v-303h37q32 0 54.5 5t39 16.5t28 30t21.5 44.5l80 207h105l-101 -236q-17 -40 -37.5 -64t-51.5 -36q38 -12 61.5 -35.5t41.5 -65.5l109 -253h-106l-83 212q-12 29 -24.5 48.5t-30 31t-40.5 16.5t-55 5h-48v-313h-93v313h-48q-32 0 -55 -5t-40.5 -16.5t-30 -31
t-24.5 -48.5l-83 -212h-106l109 253q18 42 41.5 65.5t61.5 35.5q-31 12 -51.5 36t-37.5 64l-101 236h105l80 -207q10 -26 21.5 -44.5t28 -30t39 -16.5t54.5 -5h37v303h93z" />
    <glyph glyph-name="uni0417" unicode="&#x417;" horiz-adv-x="534" 
d="M40 649q45 29 97 42.5t108 13.5q51 0 93 -13t72 -37.5t46.5 -59t16.5 -77.5q0 -58 -27.5 -99.5t-78.5 -65.5q61 -17 92 -59t31 -106q0 -94 -68 -148.5t-189 -54.5q-60 0 -110 14.5t-91 41.5l39 72q39 -22 78.5 -33.5t83.5 -11.5q163 0 163 124q0 119 -143 119h-126v77
h118q65 0 99.5 30.5t34.5 87.5q0 58 -38 87t-104 29q-42 0 -82 -10t-78 -31z" />
    <glyph glyph-name="uni0418" unicode="&#x418;" horiz-adv-x="715" 
d="M91 690h90v-552l353 552h90v-690h-90v551l-353 -551h-90v690z" />
    <glyph glyph-name="uni0419" unicode="&#x419;" horiz-adv-x="715" 
d="M91 690h90v-552l353 552h90v-690h-90v551l-353 -551h-90v690zM210 894h75v-9q0 -31 20 -48t54 -17t54 17t20 48v9h75v-11q0 -61 -40 -95t-109 -34t-109 34t-40 95v11z" />
    <glyph glyph-name="uni041A" unicode="&#x41a;" horiz-adv-x="628" 
d="M91 690h94v-303h44q36 0 60.5 3.5t42 13.5t30 27t24.5 44l94 215h103l-116 -247q-17 -36 -36.5 -56.5t-51.5 -31.5q36 -12 59.5 -35.5t43.5 -64.5l121 -255h-110l-96 217q-13 28 -26 47t-30.5 29.5t-42 15t-58.5 4.5h-55v-313h-94v690z" />
    <glyph glyph-name="uni041B" unicode="&#x41b;" horiz-adv-x="679" 
d="M226 690h362v-690h-94v614h-186q-11 -165 -31 -282t-50.5 -191.5t-74 -109t-101.5 -34.5q-18 0 -31 3v79h6q43 0 74.5 28.5t54 90t37.5 158t26 231.5z" />
    <glyph glyph-name="uni041C" unicode="&#x41c;" horiz-adv-x="841" 
d="M181 540v-540h-90v690h102l229 -413l229 413h99v-690h-90v543l-201 -363h-78z" />
    <glyph glyph-name="uni041D" unicode="&#x41d;" horiz-adv-x="710" 
d="M525 0v310h-340v-310h-94v690h94v-301h340v301h94v-690h-94z" />
    <glyph glyph-name="uni041E" unicode="&#x41e;" horiz-adv-x="762" 
d="M154 345q0 -131 60.5 -203t166.5 -72t166.5 72t60.5 203t-60.5 203t-166.5 72t-166.5 -72t-60.5 -203zM56 345q0 82 23 149t65.5 113.5t102.5 72t134 25.5t134 -25.5t102.5 -72t65.5 -113.5t23 -149q0 -83 -23 -149.5t-65.5 -113t-102.5 -72t-134 -25.5t-134 25.5
t-102.5 72t-65.5 113t-23 149.5z" />
    <glyph glyph-name="uni041F" unicode="&#x41f;" horiz-adv-x="705" 
d="M614 0h-94v614h-335v-614h-94v690h523v-690z" />
    <glyph glyph-name="uni0420" unicode="&#x420;" horiz-adv-x="618" 
d="M185 0h-94v690h238q115 0 177 -57t62 -161q0 -103 -62 -161t-177 -58h-144v-253zM185 332h141q72 0 110 33.5t38 106.5t-37.5 106t-110.5 33h-141v-279z" />
    <glyph glyph-name="uni0421" unicode="&#x421;" horiz-adv-x="632" 
d="M592 53q-36 -31 -89 -49.5t-122 -18.5q-83 0 -144 28.5t-101.5 77.5t-60 115t-19.5 141q0 85 23.5 151.5t67 112.5t104.5 70t136 24q63 0 112.5 -16.5t85.5 -45.5l-43 -70q-32 23 -68 35t-83 12q-112 0 -174.5 -71t-62.5 -203q0 -133 62.5 -204.5t169.5 -71.5
q49 0 89.5 13.5t72.5 39.5z" />
    <glyph glyph-name="uni0422" unicode="&#x422;" horiz-adv-x="606" 
d="M351 611v-611h-94v611h-237v79h566v-79h-235z" />
    <glyph glyph-name="uni0423" unicode="&#x423;" horiz-adv-x="602" 
d="M114 690l197 -446l186 446h95l-239 -551q-16 -38 -33.5 -66.5t-38.5 -48t-47.5 -29.5t-60.5 -10q-29 0 -58 8.5t-52 22.5l32 71q35 -19 77 -19q33 0 54 17t40 55l-252 550h100z" />
    <glyph glyph-name="uni0424" unicode="&#x424;" horiz-adv-x="809" 
d="M145 345q0 -94 55.5 -147t161.5 -62v418q-106 -10 -161.5 -63t-55.5 -146zM447 713v-82q73 -5 131 -27.5t98 -59t61.5 -87t21.5 -112.5t-21.5 -112.5t-62 -87.5t-98 -59.5t-130.5 -27.5v-85h-85v85q-73 5 -130.5 27.5t-98 59.5t-62 87.5t-21.5 112.5t21.5 112.5t61.5 87
t98 59t131 27.5v82h85zM664 345q0 93 -55.5 146t-161.5 63v-418q106 9 161.5 62t55.5 147z" />
    <glyph glyph-name="uni0425" unicode="&#x425;" horiz-adv-x="638" 
d="M14 0l249 356l-229 334h107l175 -263l184 263h104l-238 -333l258 -357h-108l-203 287l-195 -287h-104z" />
    <glyph glyph-name="uni0426" unicode="&#x426;" horiz-adv-x="708" 
d="M91 690h94v-611h315v611h94v-611h86v-242h-86v163h-503v690z" />
    <glyph glyph-name="uni0427" unicode="&#x427;" horiz-adv-x="646" 
d="M461 690h94v-690h-94v267q-42 -13 -85.5 -19.5t-82.5 -6.5q-109 0 -167 56t-58 160v233h94v-212q0 -80 34 -117.5t112 -37.5q41 0 79.5 5t73.5 18v344z" />
    <glyph glyph-name="uni0428" unicode="&#x428;" horiz-adv-x="934" 
d="M91 690h94v-611h235v611h94v-611h235v611h94v-690h-752v690z" />
    <glyph glyph-name="uni0429" unicode="&#x429;" horiz-adv-x="943" 
d="M91 690h94v-611h228v611h94v-611h228v611h94v-611h86v-242h-86v163h-738v690z" />
    <glyph glyph-name="uni042A" unicode="&#x42a;" horiz-adv-x="716" 
d="M294 335v-256h138q72 0 110 31t38 97t-38 97t-110 31h-138zM20 690h274v-276h141q116 0 177.5 -52t61.5 -155t-61.5 -155t-177.5 -52h-233v611h-182v79z" />
    <glyph glyph-name="uni042B" unicode="&#x42b;" horiz-adv-x="836" 
d="M651 690h94v-690h-94v690zM183 335v-256h136q72 0 110 31t38 97t-38 97t-110 31h-136zM91 690h92v-276h139q116 0 177.5 -52t61.5 -155t-61.5 -155t-177.5 -52h-231v690z" />
    <glyph glyph-name="uni042C" unicode="&#x42c;" horiz-adv-x="611" 
d="M183 335v-256h144q72 0 110 31t38 97t-38 97t-110 31h-144zM91 690h92v-276h147q116 0 177.5 -52t61.5 -155t-61.5 -155t-177.5 -52h-239v690z" />
    <glyph glyph-name="uni042D" unicode="&#x42d;" horiz-adv-x="638" 
d="M157 387h327q-9 113 -69.5 173t-166.5 60q-45 0 -84 -11.5t-74 -34.5l-43 69q40 30 93 46t115 16q77 0 138 -24.5t103 -71t64 -113t22 -151.5t-21.5 -152t-62.5 -113t-101 -70.5t-136 -24.5q-68 0 -123.5 17.5t-97.5 50.5l44 70q35 -25 78.5 -39t90.5 -14
q104 0 163.5 61.5t67.5 176.5h-327v79z" />
    <glyph glyph-name="uni042E" unicode="&#x42e;" horiz-adv-x="997" 
d="M626 705q71 0 129 -25.5t99.5 -72.5t64 -113.5t22.5 -148.5t-22.5 -148.5t-64 -113.5t-99.5 -72.5t-129 -25.5q-67 0 -122.5 23t-96 65t-64.5 102t-28 135h-131v-310h-93v690h93v-301h131q6 73 30.5 131.5t65 99.5t95 63t120.5 22zM626 621q-102 0 -158.5 -72.5
t-56.5 -203.5t56.5 -203.5t158.5 -72.5t160 72.5t58 203.5t-58 203.5t-160 72.5z" />
    <glyph glyph-name="uni042F" unicode="&#x42f;" horiz-adv-x="624" 
d="M533 690v-690h-90v277h-91q-55 0 -87 -18.5t-52 -64.5l-86 -194h-105l103 217q35 74 88 88q-69 16 -106 63.5t-37 120.5q0 100 62 150.5t177 50.5h224zM443 611h-130q-77 0 -113 -30.5t-36 -94.5q0 -132 152 -132h127v257z" />
    <glyph glyph-name="uni0430" unicode="&#x430;" horiz-adv-x="520" 
d="M445 -3q-40 0 -58.5 20.5t-20.5 58.5q-21 -41 -63.5 -64t-99.5 -23q-39 0 -69.5 11.5t-51.5 32t-31.5 48.5t-10.5 60q0 42 17 72t45.5 48.5t65.5 27.5t77 9h110v30q0 52 -26 81.5t-93 29.5q-40 0 -76.5 -12t-69.5 -35l-36 60q39 30 87.5 45.5t102.5 15.5q40 0 75.5 -9
t62 -31t42 -57.5t15.5 -89.5v-223q0 -22 7.5 -30t31.5 -8h11v-62q-8 -2 -20 -4t-24 -2zM247 233q-59 0 -90 -21.5t-31 -66.5q0 -38 23 -60t71 -22q33 0 58 11t42.5 30t26 45.5t8.5 56.5v27h-108z" />
    <glyph glyph-name="uni0431" unicode="&#x431;" horiz-adv-x="573" 
d="M206 575q-31 -26 -48 -72.5t-22 -117.5q27 48 74 73.5t108 25.5q50 0 89.5 -17.5t66.5 -49t41 -76t14 -98.5q0 -60 -17 -107.5t-47.5 -80.5t-74 -50.5t-96.5 -17.5q-115 0 -178.5 82.5t-63.5 238.5q0 80 13.5 145.5t42.5 114.5t74 80t109 43l190 35l13 -75l-183 -31
q-35 -6 -61.5 -18t-43.5 -27zM298 407q-69 0 -111 -45.5t-42 -126.5q0 -37 10 -68.5t28.5 -54t46.5 -35.5t64 -13q67 0 104.5 45t37.5 130q0 82 -36 125t-102 43z" />
    <glyph glyph-name="uni0432" unicode="&#x432;" horiz-adv-x="540" 
d="M80 500h209q89 0 135 -33.5t46 -95.5q0 -80 -75 -110q97 -24 97 -118q0 -69 -48 -106t-139 -37h-225v500zM164 223v-155h123q119 0 119 77q0 38 -26.5 58t-86.5 20h-129zM164 432v-144h117q54 0 78.5 17.5t24.5 54.5t-25.5 54.5t-80.5 17.5h-114z" />
    <glyph glyph-name="uni0433" unicode="&#x433;" horiz-adv-x="421" 
d="M80 500h327v-74h-238v-426h-89v500z" />
    <glyph glyph-name="uni0434" unicode="&#x434;" horiz-adv-x="581" 
d="M157 500h324v-426h80v-227h-80v153h-383v-153h-80v227h52q19 27 32.5 60t23.5 76t16.5 97.5t10.5 124.5zM392 74v354h-154q-8 -129 -26 -215t-52 -139h232z" />
    <glyph glyph-name="uni0435" unicode="&#x435;" horiz-adv-x="539" 
d="M137 229q5 -81 48.5 -123t124.5 -42q78 0 127 40l38 -59q-34 -30 -77.5 -44t-95.5 -14q-58 0 -105 17.5t-80 51.5t-51 84t-18 115q0 61 18 109t50.5 81t76 50.5t94.5 17.5t89.5 -16.5t64.5 -46.5t39 -71.5t13 -90.5q0 -31 -5 -59h-351zM289 439q-62 0 -102 -38t-48 -104
h270v8q0 64 -31 99t-89 35z" />
    <glyph glyph-name="uni0436" unicode="&#x436;" horiz-adv-x="755" 
d="M421 500v-214h30q25 0 42.5 4t31 13t23.5 24t19 38l54 135h92l-70 -166q-13 -31 -30 -48.5t-43 -27.5q58 -22 84 -86l73 -172h-94l-57 141q-18 44 -43 61t-72 17h-40v-219h-87v219h-40q-47 0 -72 -17t-43 -61l-57 -141h-94l73 172q26 64 84 86q-26 10 -43 27.5t-30 48.5
l-70 166h92l54 -135q9 -23 19 -38t23.5 -24t31 -13t42.5 -4h30v214h87z" />
    <glyph glyph-name="uni0437" unicode="&#x437;" horiz-adv-x="461" 
d="M33 465q76 48 177 48q85 0 135.5 -36t50.5 -102q0 -42 -21 -71t-59 -44q46 -11 71.5 -42.5t25.5 -77.5q0 -71 -56 -112t-154 -41q-112 0 -177 48l32 62q58 -36 137 -36q65 0 98.5 21t33.5 62q0 39 -26.5 57t-86.5 18h-101v65h96q49 0 75 19.5t26 56.5q0 38 -28.5 58.5
t-79.5 20.5q-77 0 -136 -35z" />
    <glyph glyph-name="uni0438" unicode="&#x438;" horiz-adv-x="600" 
d="M80 500h87v-376l270 376h83v-500h-87v374l-270 -374h-83v500z" />
    <glyph glyph-name="uni0439" unicode="&#x439;" horiz-adv-x="600" 
d="M80 500h87v-376l270 376h83v-500h-87v374l-270 -374h-83v500zM151 729h74v-7q0 -34 19.5 -52.5t55.5 -18.5t55.5 18.5t19.5 52.5v7h74v-8q0 -60 -39.5 -97.5t-109.5 -37.5t-109.5 37.5t-39.5 97.5v8z" />
    </font>
</defs>
</svg>
